За бортом - Overboard (1987) BDRip-HEVC 1080p - KORSAR

Torrent Details


За бортом - Overboard (1987) BDRip-HEVC 1080p - KORSAR

NAME
За бортом - Overboard (1987) BDRip-HEVC 1080p - KORSAR.torrent
CATEGORY
Movies
INFOHASH
4a85bb2118e2f8f29103e2161c396676c7b6b84b
SIZE
10.9 GB in 0 files
ADDED
Uploaded on 16-06-2020 by our crawler pet called "Spidey".
SWARM
0 seeders & 0 peers
RATING
No votes yet.

Please login to vote for this torrent.


Description

Информация о фильме

Название: За бортом

Оригинальное название: Overboard

Год выхода: 1987

Жанр: Комедия, мелодрама

Режиссер: Гэрри Маршалл

В ролях: Голди Хоун, Курт Расселл, Эдвард Херрманн, Кэтрин Хелмонд, Майкл Дж. Хэгерти, Родди МакДауэлл, Джэред Раштон, Джефри Уайзмен, Брайан Прайс, Джэми Вайлд, Фрэнк Кампанелла, Генри Алан Миллер, Фрэнк Бакстон, Кэрол Уиллиард, Дорис Хесс



О фильме:

Джоанна Стейтон — властная, заносчивая и несговорчивая жена самоуверенного владельца яхты. Когда их посудина останавливается для ремонта в небольшом городке, сварливая и взбалмошная Джоанна нанимает плотника Дина Проффитта, чтобы тот смастерил ей новый шкафчик. Но вместо платы за работу Дин получает от ворот поворот — ведь Джоанна никогда ничем не бывает довольна. Но на этот раз ее фирменные выкрутасы заканчиваются тем, что она падает за борт и напрочь теряет память. А Дин тем временем осуществляет бесподобный план мести: он забирает Джоанну к себе, переименовывает ее в Энни и объявляет своей женой и матерью своих четверых непослушных сыновей...







Страна: США

Студия: Hawn-Sylbert Movie Company, Metro-Goldwyn-Mayer (MGM), Star Partners

Продолжительность: 01:52:10

Перевод: Профессиональный (многоголосый, двухголосый), авторский, любительский одноголосый



Файл

Качество: BDRip-HEVC 1080p

Формат: MKV

Видео: HEVC, 1920x1040, 11.0 Мбит/с, 23.976 кадр/с, 10 бит

Звук:

Аудио1: Русская, AC3 192 Кбит/с, 2 канала(ов) MVO (Селена Интернэшнл, по заказу ОРТ)

Аудио2: Русская, AC3 192 Кбит/с, 2 канала(ов) MVO (НТВ+)

Аудио3: Русская, AC3 192 Кбит/с, 2 канала(ов) MVO (Intra Communications)

Аудио4: Русская, AC3 192 Кбит/с, 2 канала(ов) MVO (SONY CHANNEL)

Аудио5: Русская, AC3 192 Кбит/с, 2 канала(ов) MVO (R5)

Аудио6: Русская, AC3 192 Кбит/с, 2 канала(ов) DVO (Союз Видео)

Аудио7: Русская, AC3 384 Кбит/с, 2 канала(ов) AVO (Дольский)

Аудио8: Русская, AC3 384 Кбит/с, 2 канала(ов) AVO (Михалев)

Аудио9: Русская, AC3 192 Кбит/с, 2 канала(ов) VO (K9)

Аудио10: Украинская, AC3 192 Кбит/с, 2 канала(ов) Дублированный (1+1))

Аудио11: Украинская, AC3 224 Кбит/с, 2 канала(ов) MVO (ICTV)

Аудио12: English, AC3 384 Кбит/с, 2 канала(ов) Original

Субтитры: Русские, английские

Навигация по главам: Есть



Mediainfox265 [info]: frame I: 1530, Avg QP:18.14 kb/s: 36681.89

x265 [info]: frame P: 28013, Avg QP:19.08 kb/s: 22673.58

x265 [info]: frame B: 131828, Avg QP:21.24 kb/s: 8159.82

x265 [info]: consecutive B-frames: 7.3% 0.3% 0.8% 10.3% 10.9% 61.0% 4.5% 3.4% 0.6% 0.5% 0.3%



General

Unique ID : 139915345850929232388105065239627510489 (0x6942B7261DCC5C927D4B7F90A3CD32D9)

Complete name : H:HEVC4За бортом - Overboard (1987) BDRip-HEVC 1080p - KORSAR.mkv

Format : Matroska

Format version : Version 4 / Version 2

File size : 10.9 GiB

Duration : 1 h 52 min

Overall bit rate : 13.9 Mb/s

Movie name : Overboard (1987)_rip_by_Cthulhu

Encoded date : UTC 2020-06-09 19:02:17

Writing application : mkvmerge v46.0.0 ('No Deeper Escape') 64-bit

Writing library : libebml v1.3.10 + libmatroska v1.5.2

Cover : Yes

Attachments : cover4.jpg



Video

ID : 1

Format : HEVC

Format/Info : High Efficiency Video Coding

Format profile : Main [email protected]@High

Codec ID : V_MPEGH/ISO/HEVC

Duration : 1 h 52 min

Bit rate : 11.0 Mb/s

Width : 1 920 pixels

Height : 1 040 pixels

Display aspect ratio : 1.85:1

Frame rate mode : Constant

Frame rate : 23.976 (24000/1001) FPS

Color space : YUV

Chroma subsampling : 4:2:0

Bit depth : 10 bits

Bits/(Pixel*Frame) : 0.229

Stream size : 8.58 GiB (79%)

Writing library : x265 3.3+2-gbe2d82093:[Windows][GCC 10.0.1][64 bit] 10bit

Encoding settings : cpuid=1111039 / frame-threads=4 / numa-pools=16 / wpp / no-pmode / no-pme / no-psnr / no-ssim / log-level=2 / input-csp=1 / input-res=1920x1040 / interlace=0 / total-frames=161371 / level-idc=41 / high-tier=1 / uhd-bd=0 / ref=5 / no-allow-non-conformance / no-repeat-headers / annexb / no-aud / no-hrd / info / hash=0 / no-temporal-layers / open-gop / min-keyint=24 / keyint=240 / gop-lookahead=0 / bframes=10 / b-adapt=2 / b-pyramid / bframe-bias=0 / rc-lookahead=60 / lookahead-slices=1 / scenecut=40 / hist-scenecut=0 / radl=0 / no-splice / no-intra-refresh / ctu=32 / min-cu-size=8 / rect / amp / max-tu-size=32 / tu-inter-depth=4 / tu-intra-depth=4 / limit-tu=1 / rdoq-level=2 / dynamic-rd=0.00 / no-ssim-rd / signhide / no-tskip / nr-intra=0 / nr-inter=0 / no-constrained-intra / no-strong-intra-smoothing / max-merge=5 / limit-refs=3 / limit-modes / me=3 / subme=7 / merange=57 / temporal-mvp / no-frame-dup / hme / Level / merange / L0,L1,L2=16,32,57 / weightp / weightb / no-analyze-src-pics / deblock=-2:-2 / no-sao / no-sao-non-deblock / rd=6 / selective-sao=0 / no-early-skip / rskip / rskip-edge-threshold=0.050000 / no-fast-intra / no-tskip-fast / no-cu-lossless / b-intra / no-splitrd-skip / rdpenalty=0 / psy-rd=1.50 / psy-rdoq=0.90 / no-rd-refine / no-lossless / cbqpoffs=0 / crqpoffs=0 / rc=crf / crf=20.0 / qcomp=0.70 / qpstep=4 / stats-write=0 / stats-read=0 / vbv-maxrate=50000 / vbv-bufsize=50000 / vbv-init=0.9 / crf-max=0.0 / crf-min=0.0 / ipratio=1.40 / pbratio=1.30 / aq-mode=1 / aq-strength=1.00 / no-cutree / zone-count=0 / no-strict-cbr / qg-size=32 / no-rc-grain / qpmax=69 / qpmin=0 / no-const-vbv / sar=1 / overscan=0 / videoformat=5 / range=0 / colorprim=1 / transfer=1 / colormatrix=1 / chromaloc=0 / display-window=0 / cll=0,0 / min-luma=0 / max-luma=1023 / log2-max-poc-lsb=8 / vui-timing-info / vui-hrd-info / slices=1 / no-opt-qp-pps / no-opt-ref-list-length-pps / no-multi-pass-opt-rps / scenecut-bias=0.05 / hist-threshold=0.01 / no-opt-cu-delta-qp / no-aq-motion / no-hdr10 / no-hdr10-opt / no-dhdr10-opt / no-idr-recovery-sei / analysis-reuse-level=0 / analysis-save-reuse-level=0 / analysis-load-reuse-level=0 / scale-factor=0 / refine-intra=0 / refine-inter=0 / refine-mv=1 / refine-ctu-distortion=0 / no-limit-sao / ctu-info=0 / no-lowpass-dct / refine-analysis-type=0 / copy-pic=1 / max-ausize-factor=1.0 / no-dynamic-refine / no-single-sei / no-hevc-aq / no-svt / no-field / qp-adaptation-range=1.00 / no-scenecut-aware-qpconformance-window-offsets / right=0 / bottom=0

Language : English

Default : Yes

Forced : No

Color range : Limited

Color primaries : BT.709

Transfer characteristics : BT.709

Matrix coefficients : BT.709



Audio #1

ID : 2

Format : AC-3

Format/Info : Audio Coding 3

Commercial name : Dolby Digital

Codec ID : A_AC3

Duration : 1 h 52 min

Bit rate mode : Constant

Bit rate : 192 kb/s

Channel(s) : 2 channels

Channel layout : L R

Sampling rate : 48.0 kHz

Frame rate : 31.250 FPS (1536 SPF)

Bit depth : 16 bits

Compression mode : Lossy

Stream size : 154 MiB (1%)

Title : MVO (ОРТ)

Language : Russian

Service kind : Complete Main

Default : Yes

Forced : No



Audio #2

ID : 3

Format : AC-3

Format/Info : Audio Coding 3

Commercial name : Dolby Digital

Codec ID : A_AC3

Duration : 1 h 52 min

Bit rate mode : Constant

Bit rate : 192 kb/s

Channel(s) : 2 channels

Channel layout : L R

Sampling rate : 48.0 kHz

Frame rate : 31.250 FPS (1536 SPF)

Bit depth : 16 bits

Compression mode : Lossy

Stream size : 154 MiB (1%)

Title : MVO (НТВ+)

Language : Russian

Service kind : Complete Main

Default : No

Forced : No



Audio #3

ID : 4

Format : AC-3

Format/Info : Audio Coding 3

Commercial name : Dolby Digital

Codec ID : A_AC3

Duration : 1 h 52 min

Bit rate mode : Constant

Bit rate : 192 kb/s

Channel(s) : 2 channels

Channel layout : L R

Sampling rate : 48.0 kHz

Frame rate : 31.250 FPS (1536 SPF)

Bit depth : 16 bits

Compression mode : Lossy

Stream size : 154 MiB (1%)

Title : MVO (Intra Communications)

Language : Russian

Service kind : Complete Main

Default : No

Forced : No



Audio #4

ID : 5

Format : AC-3

Format/Info : Audio Coding 3

Commercial name : Dolby Digital

Codec ID : A_AC3

Duration : 1 h 51 min

Bit rate mode : Constant

Bit rate : 192 kb/s

Channel(s) : 2 channels

Channel layout : L R

Sampling rate : 48.0 kHz

Frame rate : 31.250 FPS (1536 SPF)

Bit depth : 16 bits

Compression mode : Lossy

Stream size : 154 MiB (1%)

Title : MVO (SONY CHANNEL)

Language : Russian

Service kind : Complete Main

Default : No

Forced : No



Audio #5

ID : 6

Format : AC-3

Format/Info : Audio Coding 3

Commercial name : Dolby Digital

Codec ID : A_AC3

Duration : 1 h 52 min

Bit rate mode : Constant

Bit rate : 192 kb/s

Channel(s) : 2 channels

Channel layout : L R

Sampling rate : 48.0 kHz

Frame rate : 31.250 FPS (1536 SPF)

Bit depth : 16 bits

Compression mode : Lossy

Stream size : 154 MiB (1%)

Title : MVO (R5)

Language : Russian

Service kind : Complete Main

Default : No

Forced : No



Audio #6

ID : 7

Format : AC-3

Format/Info : Audio Coding 3

Commercial name : Dolby Digital

Codec ID : A_AC3

Duration : 1 h 52 min

Bit rate mode : Constant

Bit rate : 192 kb/s

Channel(s) : 2 channels

Channel layout : L R

Sampling rate : 48.0 kHz

Frame rate : 31.250 FPS (1536 SPF)

Bit depth : 16 bits

Compression mode : Lossy

Stream size : 154 MiB (1%)

Title : DVO (Союз Видео)

Language : Russian

Service kind : Complete Main

Default : No

Forced : No



Audio #7

ID : 8

Format : AC-3

Format/Info : Audio Coding 3

Commercial name : Dolby Digital

Codec ID : A_AC3

Duration : 1 h 52 min

Bit rate mode : Constant

Bit rate : 384 kb/s

Channel(s) : 2 channels

Channel layout : L R

Sampling rate : 48.0 kHz

Frame rate : 31.250 FPS (1536 SPF)

Bit depth : 16 bits

Compression mode : Lossy

Stream size : 308 MiB (3%)

Title : AVO (Дольский)

Language : Russian

Service kind : Complete Main

Default : No

Forced : No



Audio #8

ID : 9

Format : AC-3

Format/Info : Audio Coding 3

Commercial name : Dolby Digital

Codec ID : A_AC3

Duration : 1 h 52 min

Bit rate mode : Constant

Bit rate : 384 kb/s

Channel(s) : 2 channels

Channel layout : L R

Sampling rate : 48.0 kHz

Frame rate : 31.250 FPS (1536 SPF)

Bit depth : 16 bits

Compression mode : Lossy

Stream size : 308 MiB (3%)

Title : AVO (Михалев)

Language : Russian

Service kind : Complete Main

Default : No

Forced : No



Audio #9

ID : 10

Format : AC-3

Format/Info : Audio Coding 3

Commercial name : Dolby Digital

Codec ID : A_AC3

Duration : 1 h 52 min

Bit rate mode : Constant

Bit rate : 192 kb/s

Channel(s) : 2 channels

Channel layout : L R

Sampling rate : 48.0 kHz

Frame rate : 31.250 FPS (1536 SPF)

Bit depth : 16 bits

Compression mode : Lossy

Stream size : 154 MiB (1%)

Title : VO (K9)

Language : Russian

Service kind : Complete Main

Default : No

Forced : No



Audio #10

ID : 11

Format : AC-3

Format/Info : Audio Coding 3

Commercial name : Dolby Digital

Codec ID : A_AC3

Duration : 1 h 52 min

Bit rate mode : Constant

Bit rate : 192 kb/s

Channel(s) : 2 channels

Channel layout : L R

Sampling rate : 48.0 kHz

Frame rate : 31.250 FPS (1536 SPF)

Bit depth : 16 bits

Compression mode : Lossy

Stream size : 154 MiB (1%)

Title : Dub (1+1)

Language : Ukrainian

Service kind : Complete Main

Default : No

Forced : No



Audio #11

ID : 12

Format : AC-3

Format/Info : Audio Coding 3

Commercial name : Dolby Digital

Codec ID : A_AC3

Duration : 1 h 52 min

Bit rate mode : Constant

Bit rate : 224 kb/s

Channel(s) : 2 channels

Channel layout : L R

Sampling rate : 48.0 kHz

Frame rate : 31.250 FPS (1536 SPF)

Bit depth : 16 bits

Compression mode : Lossy

Stream size : 180 MiB (2%)

Title : MVO (ICTV)

Language : Ukrainian

Service kind : Complete Main

Default : No

Forced : No



Audio #12

ID : 13

Format : AC-3

Format/Info : Audio Coding 3

Commercial name : Dolby Digital

Codec ID : A_AC3

Duration : 1 h 52 min

Bit rate mode : Constant

Bit rate : 384 kb/s

Channel(s) : 2 channels

Channel layout : L R

Sampling rate : 48.0 kHz

Frame rate : 31.250 FPS (1536 SPF)

Bit depth : 16 bits

Compression mode : Lossy

Stream size : 308 MiB (3%)

Language : English

Service kind : Complete Main

Default : No

Forced : No



Text #1

ID : 14

Format : UTF-8

Codec ID : S_TEXT/UTF8

Codec ID/Info : UTF-8 Plain Text

Duration : 1 h 48 min

Bit rate : 97 b/s

Count of elements : 1248

Stream size : 77.4 KiB (0%)

Language : Russian

Default : No

Forced : No



Text #2

ID : 15

Format : UTF-8

Codec ID : S_TEXT/UTF8

Codec ID/Info : UTF-8 Plain Text

Duration : 1 h 48 min

Bit rate : 73 b/s

Count of elements : 1455

Stream size : 58.6 KiB (0%)

Language : English

Default : No

Forced : No



Menu

00:00:00.000 : :Logo/Main Title

00:03:27.999 : :Meeting Joanna

00:08:07.236 : :Dean Gets Fired

00:12:45.848 : :Of Mummies & Monsters

00:15:35.684 : :Overboard...

00:17:37.264 : :...And Ill-Mannered

00:21:05.138 : :"The Bitch!"...

00:22:50.160 : :...And The Pitch

00:26:45.937 : :"I Just Ate A Bug!"

00:28:22.867 : :Meeting The Monsters

00:33:15.451 : :Burn Victim

00:35:51.941 : :"I'm A Short, Fat Slut"

00:38:28.806 : :The Dream

00:41:42.917 : :Scores Of Chores

00:45:27.391 : :Finding A Memory

00:47:31.807 : :Photographic Evidence

00:49:44.231 : :Payback Is Swell

00:54:49.577 : :"Anal Compulsive Hun"

00:58:58.368 : :Parent-To-Parent Talk

01:04:32.827 : :French & Fertilizer

01:08:01.994 : :The Wonders Of Golf

01:10:20.883 : :Dean's Confession

01:13:43.168 : :Arturo & Katarina

01:19:13.790 : :A Snag In The Wool

01:24:26.686 : :The Grand Opening

01:26:17.338 : :Grant Returns

01:30:00.645 : :Leaving Elk Cove

01:33:16.257 : :Almost Fully Recovered

01:37:15.454 : :Andrew's Insight

01:41:06.894 : :"You Left Me There"

01:43:24.740 : :Arturo & Katarina II

01:49:41.324 : :End CreditsСкриншоты





Релиз от: Cthulhu

Discussion

Comments 0

Post Your Comment

Torrent Files (Unavailable)

Please check back later to get a list of all files included in this torrent.

Alternative Torrents for 'За бортом Overboard HEVC KORSAR'.

TORRENT NAMEADDEDSIZESEEDSPEERSHEALTH
6/16/202010.9 GB00