Celldweller-Live Upon A Blackstar 2012 HDRip

Torrent Details


Celldweller-Live Upon a Blackstar 2012 HDRip

NAME
Celldweller-Live Upon a Blackstar 2012 HDRip.torrent
CATEGORY
Music
INFOHASH
c68a5508f74edc97df75518dc1bc6fe284cffb0a
SIZE
501 MB in 1 file
ADDED
Uploaded on 16-06-2020 by our crawler pet called "Spidey".
SWARM
0 seeders & 0 peers
RATING
No votes yet.

Please login to vote for this torrent.


Description

Информация о фильме

Название: Celldweller - Live Upon a Blackstar

Год выхода: 2012

Жанр: Electronic, Rock

Стиль: Trance, Electro, Dubstep, Industrial

В ролях: Klayton (Celldweller), Bret Autrey (Blue Stahli)



О фильме:

Благодаря профессиональной съемке, сделанной в США, Канаде, России и Японии, была создана уникальная, захватывающая шоу программа за 2010/2011 год. Полноценный концертный тур Live Upon a Blackstar.



Tracklist01. Through the Gates (Live)

02. The Best It's Gonna Get vs. Tainted (Live)

03. Frozen (Live)

04. Own Little World (Live)

05. Symbiont (Live)

06. Louder Than Words (Live)

07. Ursa Minor (Live)

08. Fadeaway (Live)

09. So Long Sentiment vs. Eon (Live)

10. The Lucky One (Live)

11. Switchback (Live)

Страна: США

Студия: FiXT Music

Продолжительность: 00:59:18



Файл

Формат: MP4

Качество: HDRip (исх. BDRip 720p by KASPR)

Видео: AVC, 640x360 (16:9), 23.976 fps, 800 kb/s

Звук: AAC LC, 48.0 KHz, 2 ch, 374 kb/s



MediaInfoGeneral

Complete name : Celldweller-Live.Upon.a.Blackstar.2012.HDRip.mp4

Format : MPEG-4

Format profile : Base Media

Codec ID : isom (isom/avc1)

File size : 501 MiB

Duration : 59 min 18 s

Overall bit rate mode : Variable

Overall bit rate : 1 182 kb/s

Encoded date : UTC 2020-06-16 13:09:21

Tagged date : UTC 2020-06-16 13:10:31



Video

ID : 1

Format : AVC

Format/Info : Advanced Video Codec

Format profile : [email protected]

Format settings : CABAC / 14 Ref Frames

Format settings, CABAC : Yes

Format settings, RefFrames : 14 frames

Codec ID : avc1

Codec ID/Info : Advanced Video Coding

Duration : 59 min 18 s

Bit rate : 800 kb/s

Maximum bit rate : 2 587 kb/s

Width : 640 pixels

Height : 360 pixels

Display aspect ratio : 16:9

Frame rate mode : Constant

Frame rate : 23.976 (24000/1001) FPS

Color space : YUV

Chroma subsampling : 4:2:0

Bit depth : 8 bits

Scan type : Progressive

Bits/(Pixel*Frame) : 0.145

Stream size : 339 MiB (68%)

Writing library : x264 core 152 r2851 ba24899

Encoding settings : cabac=1 / ref=14 / deblock=1:-1:-1 / analyse=0x3:0x113 / me=umh / subme=10 / psy=1 / psy_rd=1.00:0.02 / mixed_ref=1 / me_range=32 / chroma_me=1 / trellis=2 / 8x8dct=1 / cqm=0 / deadzone=21,11 / fast_pskip=0 / chroma_qp_offset=-3 / threads=6 / lookahead_threads=1 / sliced_threads=0 / nr=0 / decimate=0 / interlaced=0 / bluray_compat=0 / constrained_intra=0 / bframes=12 / b_pyramid=2 / b_adapt=2 / b_bias=0 / direct=3 / weightb=1 / open_gop=0 / weightp=2 / keyint=250 / keyint_min=23 / scenecut=40 / intra_refresh=0 / rc=2pass / mbtree=0 / bitrate=800 / ratetol=1.0 / qcomp=0.80 / qpmin=0 / qpmax=69 / qpstep=4 / cplxblur=20.0 / qblur=0.5 / ip_ratio=1.30 / pb_ratio=1.30 / aq=2:0.80

Language : English

Encoded date : UTC 2020-06-16 13:09:21

Tagged date : UTC 2020-06-16 13:10:05

Menus : 3

Codec configuration box : avcC



Audio

ID : 2

Format : AAC LC

Format/Info : Advanced Audio Codec Low Complexity

Codec ID : mp4a-40-2

Duration : 59 min 18 s

Bit rate mode : Variable

Bit rate : 374 kb/s

Maximum bit rate : 431 kb/s

Channel(s) : 2 channels

Channel layout : L R

Sampling rate : 48.0 kHz

Frame rate : 46.875 FPS (1024 SPF)

Compression mode : Lossy

Stream size : 159 MiB (32%)

Language : English

Default : Yes

Alternate group : 1

Encoded date : UTC 2020-06-16 13:07:15

Tagged date : UTC 2020-06-16 13:10:05



Menu

ID : 3

Codec ID : text

Duration : 59 min 18 s

Encoded date : UTC 2020-06-16 13:10:31

Tagged date : UTC 2020-06-16 13:10:31

Bit rate mode : CBR

Menu For : 1

00:00:00.000 : Chapter 01

00:00:42.042 : Chapter 02

00:02:51.171 : Chapter 03

00:08:41.521 : Chapter 04

00:13:01.780 : Chapter 05

00:17:33.052 : Chapter 06

00:20:21.220 : Chapter 07

00:26:48.607 : Chapter 08

00:29:55.794 : Chapter 09

00:35:52.150 : Chapter 10

00:41:59.517 : Chapter 11

00:50:46.043 : Chapter 12

00:59:16.553 : Chapter 13Скриншоты

Discussion

Comments 0

Post Your Comment

Files in this torrent

FILENAMESIZE
Celldweller-Live.Upon.a.Blackstar.2012.HDRip.mp4501.3 MB

Alternative Torrents for 'CelldwellerLive Upon Blackstar'.

There are no alternative torrents found.