Calvaire 2004 DVDRip RUS Liosaa

Torrent Details

Calvaire 2004 DVDRip RUS liosaa

NAME
Calvaire 2004 DVDRip RUS liosaa.torrent
CATEGORY
Movies
INFOHASH
3410bb6025911c76b8f65c143d4aa2eb2990edb0
SIZE
764 MB in 1 file
ADDED
Uploaded on 17-06-2020 by our crawler pet called "Spidey".
SWARM
0 seeders & 0 peers
RATING
No votes yet.

Please login to vote for this torrent.


Description

Информация о фильме

Название: Мучение / Крестные муки

Оригинальное название: Calvaire / The Ordeal

Год выхода: 2004

Жанр: ужасы, драма, гротеск

Режиссер: Фабрис Дю Вельц / Fabrice Du Welz

В ролях: Лоран Люка, Жан-Люк Кушар, Жакки Берруайе, Филипп Наон, Брижит Лаэ, Жижи Курсиньи...



О фильме:

В канун Рождества, после очередной предновогодней халтурки, у поп-шансонье Марка ночью ломается фургончик. И не где-нибудь, а в глухом лесу, неподалёку от забытой богом деревеньки, среди дождей, болот и туманов. Возникший из ниоткуда местный дурачок укажет Марку путь до одинокой гостиницы. Приветливый хозяин отведёт его в убранную комнату и пообещает помочь с починкой фургона. А ещё слёзно попросит ни при каких обстоятельствах не посещать близлежащую деревушку…



Тот трэш и ад, что начнутся после, ни одно перо не опишет - просто готовьтесь сидеть с отвисшей челюстью и внимать филигранной, психиатрически точной игре актёров. Да ещё дивиться таланту и кафкианскому чутью режиссёра, который, в попытке пронять зрителя, снимает свой первый полный метр на самом краешке человеческого рассудка!




Доп. информация: перевод на русский - ПОЛНЫЙ, с песнями!!







Страна: Франция, Бельгия, Люксембург

Продолжительность: 01:28:41

Перевод: Любительский (одноголосый закадровый) liosaa



Файл

Кодек: XviD

Качество: DVDRip

Видео: 704x28 (2.40:1), 25.000 fps, 1 035 Kbps

Звук:

48 kHz, MP3, DD 2.0 ch, 160 kbps (рус)



MIФормат : AVI

Формат/Информация : Audio Video Interleave

Размер файла : 764 Мбайт

Продолжительность : 1 ч. 28 м.

Общий поток : 1204 Кбит/сек

Программа кодирования : VirtualDubMod 1.5.10.2 (build 2540/release)

Библиотека кодирования : VirtualDubMod build 2540/release



Видео

Идентификатор : 0

Формат : MPEG-4 Visual

Профиль формата : Advanced [email protected]

Настройки формата : BVOP1

Параметр BVOP формата : 1

Параметр QPel формата : Нет

Параметр GMC формата : Без точки перехода

Параметр матрицы формата : Default (MPEG)

Идентификатор кодека : XVID

Идентификатор кодека/Подсказка : XviD

Продолжительность : 1 ч. 28 м.

Битрейт : 1035 Кбит/сек

Ширина : 704 пикселя

Высота : 288 пикселей

Соотношение сторон : 2,40:1

Частота кадров : 25,000 кадров/сек

Цветовое пространство : YUV

Субдискретизация насыщенности : 4:2:0

Битовая глубина : 8 бит

Тип развёртки : Прогрессивная

Метод сжатия : С потерями

Бит/(Пиксели*Кадры) : 0.204

Размер потока : 657 Мбайт (86%)

Библиотека кодирования : XviD 1.2.1 (UTC 2008-12-04)



Аудио

Идентификатор : 1

Формат : MPEG Audio

Версия формата : Version 1

Профиль формата : Layer 3

Настройки формата : Joint stereo

Идентификатор кодека : 55

Идентификатор кодека/Подсказка : MP3

Продолжительность : 1 ч. 27 м.

Вид битрейта : Постоянный

Битрейт : 160 Кбит/сек

Каналы : 2 канала

Частота : 48,0 КГц

Метод сжатия : С потерями

Размер потока : 101 Мбайт (13%)

Выравнивание : Соединение по промежуткам

Продолжительность промежутка : 40 мс. (1,01 видеокадр)

Время предзагрузки промежутка : 504 мс.

Скриншоты



Релиз от: liosaa

Discussion

Comments 0

Post Your Comment

Files in this torrent

FILENAMESIZE
Calvaire.2004.DVDRip.RUS.liosaa.avi763.5 MB

Alternative Torrents for 'Calvaire DVDRip RUS liosaa'.

TORRENT NAMEADDEDSIZESEEDSPEERSHEALTH
6/17/2020764 MB00