Прах 2001 WEB-DL 1080p

Torrent Details


Прах 2001 WEB-DL 1080p

NAME
Прах 2001 WEB-DL 1080p.torrent
CATEGORY
Movies
INFOHASH
2b1f49a0967c1f9fccc4212419c5f88aa781d73c
SIZE
12.3 GB in 0 files
ADDED
Uploaded on 17-06-2020 by our crawler pet called "Spidey".
SWARM
0 seeders & 0 peers
RATING
No votes yet.

Please login to vote for this torrent.


Description

Название: Прах

Оригинальное название: Dust

Год выпуска: 2001

Выпущено: Германия, Великобритания, Италия, Македония, Alta Films, British Screen Productions, British Sky Broadcasting (BSkyB)

Жанр: Драма, вестерн

Режиссер: Милчо Манчевски

В ролях: Джозеф Файнс, Дэвид Уэнэм, Адриан Лестер, Анн Броше, Розмари Мёрфи, Владо Йовановски, Вера Фармига, Мэтт Росс, Салетин Билал, Николина Куяка



О фильме: В начале 20-го века двое братьев с Дикого Запада полюбили одну и ту же девушку. Она выбрала младшего Элайджу, а старший брат Люк покинул родину в поисках счастья. Так он оказался на пылающих огнем Балканах, «Диком Востоке» Европы, в восставшей против турецкого ига Македонии. Люк возглавил банду наемников со всего света, воюющих с повстанцами и выполняющих самые грязные поручения своих турецких хозяев. Совершенно неожиданно для себя в одном из боев он увидел Элайджу, который вступил в ряды македонских революционеров и, не раздумывая, готов убить старшего брата за все совершенные им злодейства…



Продолжительность: 02:04:09

Перевод: Профессиональный многоголосый

Субтитры: Русские, английские, английские (вшитые неотключаемые, на неанглийскую речь)

Навигация по главам: Есть



Файл

Качество: WEB-DL 1080p

Видео: MPEG-4 AVC, 12,9 Мбит/сек, 1920x1080, 23,976 кадра/сек

Аудио #1: AC3, 6 ch, 384 Кбит/сек | Русский, профессиональный (двухголосый закадровый)

Аудио #2: AC3, 6 ch, 384 Кбит/сек | Английский, оригинал, DVD

Аудио #3: EAC3, 2 ch, 224 Кбит/сек | Английский, оригинал, WEB-DL







Скриншоты

Инфо-файлОбщее

Уникальный идентификатор : 181714174899188054066259811277967661535 (0x88B4E0880A166168885EB4D9A56F19DF)

Полное имя : Прах.2001.WEB-DL.1080p.mkv

Формат : Matroska

Версия формата : Version 2

Размер файла : 12,3 Гбайт

Продолжительность : 2 ч. 4 м.

Режим общего битрейта : Переменный

Общий поток : 14,2 Мбит/сек

Дата кодирования : UTC 2018-06-09 14:57:35

Программа кодирования : mkvmerge v5.8.0 ('No Sleep / Pillow') built on Sep 2 2012 15:37:04

Библиотека кодирования : libebml v1.2.3 + libmatroska v1.3.0



Видео

Идентификатор : 1

Формат : AVC

Формат/Информация : Advanced Video Codec

Профиль формата : [email protected]

Настройки формата : CABAC / 4 Ref Frames

Параметр CABAC формата : Да

Параметр RefFrames формата : 4 кадра

Идентификатор кодека : V_MPEG4/ISO/AVC

Продолжительность : 2 ч. 4 м.

Вид битрейта : Переменный

Битрейт : 12,9 Мбит/сек

Максимальный битрейт : 15,0 Мбит/сек

Ширина : 1920 пикселей

Высота : 1080 пикселей

Соотношение сторон : 16:9

Режим частоты кадров : Постоянный

Частота кадров : 23,976 (24000/1001) кадра/сек

Цветовое пространство : YUV

Субдискретизация насыщенности : 4:2:0

Битовая глубина : 8 бит

Тип развёртки : Прогрессивная

Бит/(Пиксели*Кадры) : 0.259

Размер потока : 11,2 Гбайт (91%)

Язык : English

Default : Да

Forced : Нет

Цветовой диапазон : Limited

Основные цвета : BT.709

Характеристики трансфера : BT.709

Коэффициенты матрицы : BT.709



Аудио #1

Идентификатор : 2

Формат : AC-3

Формат/Информация : Audio Coding 3

Идентификатор кодека : A_AC3

Продолжительность : 2 ч. 4 м.

Вид битрейта : Постоянный

Битрейт : 384 Кбит/сек

Каналы : 6 каналов

Расположение каналов : Front: L C R, Side: L R, LFE

Частота : 48,0 КГц

Частота кадров : 31,250 кадров/сек (1536 SPF)

Битовая глубина : 16 бит

Метод сжатия : С потерями

Размер потока : 341 Мбайт (3%)

Заголовок : DVO

Язык : Russian

По умолчанию : Да

Принудительно : Нет



Аудио #2

Идентификатор : 3

Формат : AC-3

Формат/Информация : Audio Coding 3

Идентификатор кодека : A_AC3

Продолжительность : 2 ч. 4 м.

Вид битрейта : Постоянный

Битрейт : 384 Кбит/сек

Каналы : 6 каналов

Расположение каналов : Front: L C R, Side: L R, LFE

Частота : 48,0 КГц

Частота кадров : 31,250 кадров/сек (1536 SPF)

Битовая глубина : 16 бит

Метод сжатия : С потерями

Размер потока : 341 Мбайт (3%)

Заголовок : Original | 5.1

Язык : English

По умолчанию : Нет

Принудительно : Нет



Аудио #3

Идентификатор : 4

Формат : E-AC-3

Формат/Информация : Enhanced Audio Coding 3

Идентификатор кодека : A_EAC3

Продолжительность : 2 ч. 4 м.

Вид битрейта : Постоянный

Битрейт : 224 Кбит/сек

Каналы : 2 канала

Расположение каналов : Front: L R

Частота : 48,0 КГц

Частота кадров : 187,500 кадров/сек (256 SPF)

Метод сжатия : С потерями

Размер потока : 199 Мбайт (2%)

Заголовок : Original | 2.0

Язык : English

По умолчанию : Нет

Принудительно : Нет



Текст #1

Идентификатор : 5

Формат : UTF-8

Идентификатор кодека : S_TEXT/UTF8

Идентификатор кодека/Информация : UTF-8 Plain Text

Язык : Russian

По умолчанию : Нет

Принудительно : Нет



Текст #2

Идентификатор : 6

Формат : UTF-8

Идентификатор кодека : S_TEXT/UTF8

Идентификатор кодека/Информация : UTF-8 Plain Text

Язык : English

По умолчанию : Нет

Принудительно : Нет



Текст #3

Идентификатор : 7

Формат : UTF-8

Идентификатор кодека : S_TEXT/UTF8

Идентификатор кодека/Информация : UTF-8 Plain Text

Заголовок : SDH

Язык : English

По умолчанию : Нет

Принудительно : Нет



Меню

00:00:00.000 : en:Ночной Нью-Йорк

00:01:40.373 : en:В квартире Анджелы

00:07:44.737 : en:Воспоминания

00:16:11.159 : en:Деревня в Македонии

00:20:49.312 : en:Продолжение истории

00:31:21.527 : en:Сердечный приступ

00:34:13.407 : en:Нападение на улице

00:36:25.706 : en:Первый сломанный палец

00:38:35.294 : en:Снова поиски золота

00:39:41.443 : en:В больнице

00:48:19.794 : en:Неда и Лилит

00:51:18.723 : en:Отказ от исповеди

00:53:47.288 : en:Второй сломанный палец

00:58:22.730 : en:История продолжается

01:11:13.750 : en:Голова Учителя

01:20:15.416 : en:Золотой водопад

01:25:09.836 : en:Разговор в больнице

01:26:38.758 : en:Два брата

01:31:04.982 : en:Смерть Анджелы

01:35:14.940 : en:В самолёте

01:37:42.421 : en:Возвращение Люка

01:45:12.454 : en:Рождение ребёнка

01:51:07.058 : en:Гибель Люка

01:55:59.850 : en:Рассказ Эйджа

Дополнительная информация• Исходник видео WEB-DL Amazon.

Сборка:

Discussion

Comments 0

Post Your Comment

Torrent Files (Unavailable)

Please check back later to get a list of all files included in this torrent.

Alternative Torrents for 'Прах'.

TORRENT NAMEADDEDSIZESEEDSPEERSHEALTH
12/15/202016.8 GB00
6/24/20201.5 GB02
6/24/20203.6 GB00
6/17/202012.3 GB00
10/30/20191.6 GB00
4/15/2019493 MB00
3/15/2019500 MB00
3/10/20191 MB00