Geroy Po Vyzovu 2019 WEB-DLRip GeneralFilm

Torrent Details


Geroy Po Vyzovu 2019 WEB-DLRip<span style=color:#fc9c6d> GeneralFilm</span>

NAME
Geroy Po Vyzovu 2019 WEB-DLRip GeneralFilm.torrent
CATEGORY
Television
INFOHASH
3160b31a0a4e9a40bbee86f62f36b5a3d8c70cb6
SIZE
2.2 GB in 4 files
ADDED
Uploaded on 17-06-2020 by our crawler pet called "Spidey".
SWARM
0 seeders & 0 peers
RATING
No votes yet.

Please login to vote for this torrent.


Description

Оригинальное название: Герой по вызову

Год выпуска: 2019

Жанр: Детектив, комедия

Выпущено: Россия, «РИМ ПРОДАКШН»

Режиссер: Анна Зайцева

В ролях: Евгений Миллер, Кристина Асмус, Николай Клямчук, Марина Калецкая, Владимир Виноградов, Юрий Николаенко, Михаил Евланов, Алексей Федькин, Олег Тактаров, Константин Тополага, Ирина Вербицкая, Константин Соловьёв, Наталия Лесниковская, Никита Тезов, Константин Быков, Даниил Кокин, Татьяна Ястребова



О фильме: Иван Лутошин, врач по профессии и неудачник по жизни, узнает, что у него неоперабельная опухоль мозга. Он не хочет ждать мучительного конца и решает покончить жизнь самоубийством: напившись, он выходит на скоростную трассу и встаёт на полосе. Случайный знакомый – оперуполномоченный полиции Илья Туманов – спасает Лутошину жизнь и предлагает ему помощь, а именно – неофициальное участие в смертельно опасных операциях по поимке бандитов: если убьют – хотя бы не напрасно. Помогая Туманову Лутошин знакомится со следователем СК Елизаветой Леоновой и вызывает у неё живой интерес, перетекающий в симпатию – ей импонирует его безрассудность и отвага. Спустя некоторое время, Лутошин вновь проходит медицинское обследование, на котором выясняется, что опухоль замедлила рост. Он делает любопытный вывод: опухоль перестаёт расти, как только возникает реальная угроза жизни, связанная с помощью попавшим в беду людям. И теперь, чтобы выжить, ему нужно постоянно совершать настоящие подвиги.







Качество: WEBRip

Видео: XviD build 73, 720x400 (16:9), 25.000 fps, ~ 1450 Kbps (~ 0.205 bit/pixel)

Аудио: 48.0 kHz, MP3, 2/0 ch, 192 kbps

Продолжительность: 4 x ~ 00:46:00

Перевод: Не требуется [Русский]

Cубтитры: нет



Скриншоты MediaInfoGeneral

Complete name : D:RazdachiGeroy.Po.Vyzovu.2019.WEB-DLRip.GeneralFilmE02.Geroy.Po.Vyzovu.avi

Format : AVI

Format/Info : Audio Video Interleave

File size : 557 MiB

Duration : 46 min 22 s

Overall bit rate : 1 680 kb/s

Writing application : VirtualDubMod 1.5.10.3 | www.virtualdub-fr.org || (build 2550/release)

Writing library : VirtualDubMod build 2550/release



Video

ID : 0

Format : MPEG-4 Visual

Format profile : Advanced [email protected]

Format settings : BVOP1 / Custom Matrix

Format settings, BVOP : 1

Format settings, QPel : No

Format settings, GMC : No warppoints

Format settings, Matrix : Custom

Codec ID : XVID

Codec ID/Hint : XviD

Duration : 46 min 22 s

Bit rate : 1 478 kb/s

Width : 720 pixels

Height : 400 pixels

Display aspect ratio : 16:9

Frame rate : 25.000 FPS

Color space : YUV

Chroma subsampling : 4:2:0

Bit depth : 8 bits

Scan type : Progressive

Compression mode : Lossy

Bits/(Pixel*Frame) : 0.205

Stream size : 490 MiB (88%)

Writing library : XviD 73



Audio

ID : 1

Format : MPEG Audio

Format version : Version 1

Format profile : Layer 3

Codec ID : 55

Codec ID/Hint : MP3

Duration : 46 min 22 s

Bit rate mode : Constant

Bit rate : 192 kb/s

Channel(s) : 2 channels

Sampling rate : 48.0 kHz

Frame rate : 41.667 FPS (1152 SPF)

Compression mode : Lossy

Stream size : 63.7 MiB (11%)

Alignment : Aligned on interleaves

Interleave, duration : 40 ms (1.00 video frame)

Interleave, preload duratio : 504 ms

Writing library : LAME3.99r

Encoding settings : -m s -V 4 -q 2 -lowpass 18.6 -b 192

Релиз от:

Discussion

Comments 0

Post Your Comment

Files in this torrent

FILENAMESIZE
E01.Geroy.Po.Vyzovu.avi557.6 MB
E02.Geroy.Po.Vyzovu.avi557.3 MB
E03.Geroy.Po.Vyzovu.avi557.4 MB
E04.Geroy.Po.Vyzovu.avi557.3 MB

Alternative Torrents for 'Geroy Po Vyzovu DLRip'.

TORRENT NAMEADDEDSIZESEEDSPEERSHEALTH
6/29/20205.4 GB10
6/17/20202.2 GB00