The Half Of It 2020 1080p NF WEB-DL HIN-Multi DDP5 1 Atmos X264-Telly

Torrent Details

The Half of It 2020 1080p NF WEB-DL HIN-Multi DDP5 1 Atmos x264-Telly
The Half of It 2020 1080p NF WEB-DL HIN-Multi DDP5 1 Atmos x264-Telly

NAME
The Half of It 2020 1080p NF WEB-DL HIN-Multi DDP5 1 Atmos x264-Telly.torrent
CATEGORY
Movies
INFOHASH
eaf43a0616c871733ea8daf4a591a172de408578
SIZE
10 GB in 1 file
ADDED
Uploaded on 17-06-2020 by our crawler pet called "Spidey".
SWARM
0 seeders & 0 peers
RATING
No votes yet.

Please login to vote for this torrent.


Description

कोरोना से बचाव:

घर पर फिल्में देखें। घर में रहें, सुरक्षित रहें। सरकार द्वारा दिए गए सभी दिशानिर्देशों और सावधानियों का जरूर पालन करें।



Fight Corona:

Watch movies at home. Stay Home, Stay Safe. Must Follow All the guidelines and precautions advised by the Government.















********************************



The.Half.of.It.2020.1080p.NF.WEB-DL.HIN-Multi.DDP5.1.Atmos.x264-Telly



********************************



Mediainfo:-

Format                      : Matroska

Format version              : Version 4 / Version 2

File size                   : 9.95 GiB

Duration                    : 1h 45mn

Overall bit rate mode       : Variable

Overall bit rate            : 13.5 Mbps



Video

ID                          : 1

Format                      : AVC

Format/Info                 : Advanced Video Codec

Format profile              : [email protected]

Format settings, CABAC      : Yes

Format settings, ReFrames   : 3 frames

Codec ID                    : V_MPEG4/ISO/AVC

Duration                    : 1h 45mn

Bit rate mode               : Variable

Bit rate                    : 3 513 Kbps

Nominal bit rate            : 3 830 Kbps

Maximum bit rate            : 5 745 Kbps

Width                       : 1 920 pixels

Height                      : 1 080 pixels

Display aspect ratio        : 16:9

Frame rate mode             : Constant

Frame rate                  : 24.000 fps

Color space                 : YUV



Audio #1

ID                          : 2

Format                      : E-AC-3

Format/Info                 : Audio Coding 3

Format settings, Endianness : Big

Codec ID                    : A_EAC3

Duration                    : 1h 45mn

Bit rate mode               : Constant

Bit rate                    : 768 Kbps

Channel(s)                  : 6 channels

Channel positions           : Front: L C R, Side: L R, LFE

Sampling rate               : 48.0 KHz

Compression mode            : Lossy

Stream size                 : 579 MiB (6%)

Title                       : English

Language                    : English

Default                     : No

Forced                      : No



Audio #2

ID                          : 3

Format                      : E-AC-3

Format/Info                 : Audio Coding 3

Format settings, Endianness : Big

Codec ID                    : A_EAC3

Duration                    : 1h 45mn

Bit rate mode               : Constant

Bit rate                    : 640 Kbps

Channel(s)                  : 6 channels

Channel positions           : Front: L C R, Side: L R, LFE

Sampling rate               : 48.0 KHz

Compression mode            : Lossy

Stream size                 : 483 MiB (5%)

Title                       : Czech

Language                    : Czech

Default                     : No

Forced                      : No



Audio #3

ID                          : 4

Format                      : E-AC-3

Format/Info                 : Audio Coding 3

Format settings, Endianness : Big

Codec ID                    : A_EAC3

Duration                    : 1h 45mn

Bit rate mode               : Constant

Bit rate                    : 640 Kbps

Channel(s)                  : 6 channels

Channel positions           : Front: L C R, Side: L R, LFE

Sampling rate               : 48.0 KHz

Compression mode            : Lossy

Stream size                 : 483 MiB (5%)

Title                       : French

Language                    : French

Default                     : No

Forced                      : No



Audio #4

ID                          : 5

Format                      : E-AC-3

Format/Info                 : Audio Coding 3

Format settings, Endianness : Big

Codec ID                    : A_EAC3

Duration                    : 1h 45mn

Bit rate mode               : Constant

Bit rate                    : 640 Kbps

Channel(s)                  : 6 channels

Channel positions           : Front: L C R, Side: L R, LFE

Sampling rate               : 48.0 KHz

Compression mode            : Lossy

Stream size                 : 483 MiB (5%)

Title                       : German

Language                    : German

Default                     : No

Forced                      : No



Audio #5

ID                          : 6

Format                      : E-AC-3

Format/Info                 : Audio Coding 3

Format settings, Endianness : Big

Codec ID                    : A_EAC3

Duration                    : 1h 45mn

Bit rate mode               : Constant

Bit rate                    : 640 Kbps

Channel(s)                  : 6 channels

Channel positions           : Front: L C R, Side: L R, LFE

Sampling rate               : 48.0 KHz

Compression mode            : Lossy

Stream size                 : 483 MiB (5%)

Title                       : Hindi

Language                    : Hindi

Default                     : Yes

Forced                      : No



Audio #6

ID                          : 7

Format                      : E-AC-3

Format/Info                 : Audio Coding 3

Format settings, Endianness : Big

Codec ID                    : A_EAC3

Duration                    : 1h 45mn

Bit rate mode               : Constant

Bit rate                    : 640 Kbps

Channel(s)                  : 6 channels

Channel positions           : Front: L C R, Side: L R, LFE

Sampling rate               : 48.0 KHz

Compression mode            : Lossy

Stream size                 : 483 MiB (5%)

Title                       : Hungarian

Language                    : Hungarian

Default                     : No

Forced                      : No



Audio #7

ID                          : 8

Format                      : E-AC-3

Format/Info                 : Audio Coding 3

Format settings, Endianness : Big

Codec ID                    : A_EAC3

Duration                    : 1h 45mn

Bit rate mode               : Constant

Bit rate                    : 640 Kbps

Channel(s)                  : 6 channels

Channel positions           : Front: L C R, Side: L R, LFE

Sampling rate               : 48.0 KHz

Compression mode            : Lossy

Stream size                 : 483 MiB (5%)

Title                       : Italian

Language                    : Italian

Default                     : No

Forced                      : No



Audio #8

ID                          : 9

Format                      : E-AC-3

Format/Info                 : Audio Coding 3

Format settings, Endianness : Big

Codec ID                    : A_EAC3

Duration                    : 1h 45mn

Bit rate mode               : Constant

Bit rate                    : 640 Kbps

Channel(s)                  : 6 channels

Channel positions           : Front: L C R, Side: L R, LFE

Sampling rate               : 48.0 KHz

Compression mode            : Lossy

Stream size                 : 483 MiB (5%)

Title                       : Japanese

Language                    : Japanese

Default                     : No

Forced                      : No



Audio #9

ID                          : 10

Format                      : E-AC-3

Format/Info                 : Audio Coding 3

Format settings, Endianness : Big

Codec ID                    : A_EAC3

Duration                    : 1h 45mn

Bit rate mode               : Constant

Bit rate                    : 640 Kbps

Channel(s)                  : 6 channels

Channel positions           : Front: L C R, Side: L R, LFE

Sampling rate               : 48.0 KHz

Compression mode            : Lossy

Stream size                 : 483 MiB (5%)

Title                       : Polish

Language                    : Polish

Default                     : No

Forced                      : No



Audio #10

ID                          : 11

Format                      : E-AC-3

Format/Info                 : Audio Coding 3

Format settings, Endianness : Big

Codec ID                    : A_EAC3

Duration                    : 1h 45mn

Bit rate mode               : Constant

Bit rate                    : 640 Kbps

Channel(s)                  : 6 channels

Channel positions           : Front: L C R, Side: L R, LFE

Sampling rate               : 48.0 KHz

Compression mode            : Lossy

Stream size                 : 483 MiB (5%)

Title                       : Brazilian Portuguese

Language                    : Portuguese

Default                     : No

Forced                      : No



Audio #11

ID                          : 12

Format                      : E-AC-3

Format/Info                 : Audio Coding 3

Format settings, Endianness : Big

Codec ID                    : A_EAC3

Duration                    : 1h 45mn

Bit rate mode               : Constant

Bit rate                    : 640 Kbps

Channel(s)                  : 6 channels

Channel positions           : Front: L C R, Side: L R, LFE

Sampling rate               : 48.0 KHz

Compression mode            : Lossy

Stream size                 : 483 MiB (5%)

Title                       : Russian

Language                    : Russian

Default                     : No

Forced                      : No



Audio #12

ID                          : 13

Format                      : E-AC-3

Format/Info                 : Audio Coding 3

Format settings, Endianness : Big

Codec ID                    : A_EAC3

Duration                    : 1h 45mn

Bit rate mode               : Constant

Bit rate                    : 640 Kbps

Channel(s)                  : 6 channels

Channel positions           : Front: L C R, Side: L R, LFE

Sampling rate               : 48.0 KHz

Compression mode            : Lossy

Stream size                 : 483 MiB (5%)

Title                       : Spanish

Language                    : Spanish

Default                     : No

Forced                      : No



Audio #13

ID                          : 14

Format                      : E-AC-3

Format/Info                 : Audio Coding 3

Format settings, Endianness : Big

Codec ID                    : A_EAC3

Duration                    : 1h 45mn

Bit rate mode               : Constant

Bit rate                    : 640 Kbps

Channel(s)                  : 6 channels

Channel positions           : Front: L C R, Side: L R, LFE

Sampling rate               : 48.0 KHz

Compression mode            : Lossy

Stream size                 : 483 MiB (5%)

Title                       : European Spanish

Language                    : Spanish

Default                     : No

Forced                      : No



Audio #14

ID                          : 15

Format                      : E-AC-3

Format/Info                 : Audio Coding 3

Format settings, Endianness : Big

Codec ID                    : A_EAC3

Duration                    : 1h 45mn

Bit rate mode               : Constant

Bit rate                    : 640 Kbps

Channel(s)                  : 6 channels

Channel positions           : Front: L C R, Side: L R, LFE

Sampling rate               : 48.0 KHz

Compression mode            : Lossy

Stream size                 : 483 MiB (5%)

Title                       : Thai

Language                    : Thai

Default                     : No

Forced                      : No



Audio #15

ID                          : 16

Format                      : E-AC-3

Format/Info                 : Audio Coding 3

Format settings, Endianness : Big

Codec ID                    : A_EAC3

Duration                    : 1h 45mn

Bit rate mode               : Constant

Bit rate                    : 640 Kbps

Channel(s)                  : 6 channels

Channel positions           : Front: L C R, Side: L R, LFE

Sampling rate               : 48.0 KHz

Compression mode            : Lossy

Stream size                 : 483 MiB (5%)

Title                       : Turkish

Language                    : Turkish

Default                     : No

Forced                      : No



Subtitles:



Title                       : English - [Forced]

Language                    : English

Language                    : Arabic

Title                       : Chinese Simplified

Title                       : Chinese Traditional

Language                    : Czech

Language                    : Danish

Language                    : Dutch

Language                    : Finnish

Language                    : French

Language                    : German

Language                    : Greek

Language                    : Hebrew

Language                    : Hungarian

Language                    : Indonesian

Language                    : Italian

Language                    : Japanese

Language                    : Korean

Language                    : Norwegian Bokmal

Title                       : Polish

Title                       : Portuguese

Title                       : Brazilian Portuguese

Title                       : Romanian

Title                       : Russian

Title                       : Spanish

Title                       : European Spanish

Language                    : Swedish

Language                    : Thai

Language                    : Turkish

Language                    : Vietnamese







********************************



We don't add Watermark or Audio Tags.

Wherever you Share our Stuffs, Give Proper Credit to "mkvCinemas @Team Telly"

We Keep All Torrents. In case of re-seed, please pm.



********************************













********************************







********************************

Discussion

Comments 0

Post Your Comment

Files in this torrent

FILENAMESIZE
The.Half.of.It.2020.1080p.NF.WEB-DL.HIN-Multi.DDP5.1.Atmos.x264-Telly.mkv10 GB

Alternative Torrents for 'Half of It NF HINMulti DDP Atmos Telly'.

TORRENT NAMEADDEDSIZESEEDSPEERSHEALTH
Yesterday1.3 GB2659818
9/19/20201.3 GB2435233
9/19/2020700 MB1900186
Yesterday697 MB1551559
9/16/2020897 MB1432368
9/18/20202.3 GB1349672
9/19/2020375 MB1159156
9/9/2020797 MB1067306
9/14/20201.3 GB89735
9/12/20201.3 GB77219
9/12/2020696 MB68916
9/11/20204.1 GB67787
9/19/2020354 MB668104
9/7/20201.3 GB58917
9/14/2020698 MB54824