BOURNE_2_MOVIE_COLLECTION_Title1

Torrent Details


BOURNE_2_MOVIE_COLLECTION_Title1

NAME
BOURNE_2_MOVIE_COLLECTION_Title1.torrent
CATEGORY
Movies
INFOHASH
e2d4ae804e2393a5eeb1405f123977557e33e042
SIZE
1.1 GB in 1 file
ADDED
Uploaded on 17-06-2020 by our crawler pet called "Spidey".
SWARM
0 seeders & 0 peers
RATING
No votes yet.

Please login to vote for this torrent.


Description







The Bourne Supremacy (2004)

480p Dvd Rip

Hash Code:

E2D4AE804E2393A5EEB1405F123977557E33E042



























[i^Tap on image above for IMDb Info for this film^][/i]



General

Complete name                            : The Bourne Supremacy_Title1.mp4

Format                                   : MPEG-4

Format profile                           : Base Media

Codec ID                                 : isom (isom/iso2/avc1/mp41)

File size                                : 1.13 GiB

Duration                                 : 1 h 48 min

Overall bit rate mode                    : Variable

Overall bit rate                         : 1 488 kb/s

Movie name                               : BOURNE_2_MOVIE_COLLECTION

Genre                                    : Action

Writing application                      : Lavf54.6.100



Video

ID                                       : 1

Format                                   : AVC

Format/Info                              : Advanced Video Codec

Format profile                           : [email protected]

Format settings                          : 6 Ref Frames

Format settings, CABAC                   : No

Format settings, Reference frames        : 6 frames

Codec ID                                 : avc1

Codec ID/Info                            : Advanced Video Coding

Duration                                 : 1 h 48 min

Bit rate                                 : 1 205 kb/s

Width                                    : 720 pixels

Height                                   : 404 pixels

Display aspect ratio                     : 16:9

Frame rate mode                          : Constant

Frame rate                               : 29.970 (30000/1001) FPS

Color space                              : YUV

Chroma subsampling                       : 4:2:0

Bit depth                                : 8 bits

Scan type                                : Progressive

Bits/(Pixel*Frame)                       : 0.138

Stream size                              : 935 MiB (81%)

Codec configuration box                  : avcC



Audio

ID                                       : 2

Format                                   : AAC LC

Format/Info                              : Advanced Audio Codec Low Complexity

Codec ID                                 : mp4a-40-2

Duration                                 : 1 h 48 min

Bit rate mode                            : Variable

Bit rate                                 : 276 kb/s

Maximum bit rate                         : 290 kb/s

Channel(s)                               : 6 channels

Channel layout                           : C L R Ls Rs LFE

Sampling rate                            : 44.1 kHz

Frame rate                               : 43.066 FPS (1024 SPF)

Compression mode                         : Lossy

Stream size                              : 214 MiB (19%)

Default                                  : Yes

Alternate group                          : 1

Discussion

Comments 0

Post Your Comment

Files in this torrent

FILENAMESIZE
BOURNE_2_MOVIE_COLLECTION_Title1.mp41.1 GB

Alternative Torrents for 'BOURNEMOVIECOLLECTIONTitle'.

There are no alternative torrents found.