Vozvraschenie 2017 BDRip 1080p ELEKTRI4KA UNIONGANG

Torrent Details


Vozvraschenie 2017 BDRip 1080p<span style=color:#fc9c6d> ELEKTRI4KA UNIONGANG</span>

NAME
Vozvraschenie 2017 BDRip 1080p ELEKTRI4KA UNIONGANG.torrent
CATEGORY
Movies
INFOHASH
14245bc5d58b76b7a81a1e079fa7c47ef78648e9
SIZE
7.3 GB in 1 file
ADDED
Uploaded on 17-06-2020 by our crawler pet called "Spidey".
SWARM
0 seeders & 0 peers
RATING
No votes yet.

Please login to vote for this torrent.


Description

Информация о фильме

Название: Возвращение

Оригинальное название: The Recall

Год выхода: 2017

Жанр: фантастика, боевик, триллер

Режиссер: Мауро Боррелли

В ролях: АрДжей Митти, Уэсли Снайпс, Джедидайя Гудакр, Нико Пепадж, Грэхэм Шилз, Hannah Rose May, Виселос Реон Шеннон, Элиша Криис, Лаура Билгери, Guy Griffithe



О фильме: Пока группа друзей собирается в День Труда отдохнуть на острове - по всему миру происходят странные метеорологические явления, а обитающий в окрестностях того же озера опальный астронавт готовится к возвращению неких Посетителей, с которыми у него личные счеты.







Выпущено: Канада / Bridgegate Pictures, Minds Eye Entertainment

Продолжительность: 01:31:07

Озвучивание: Профессиональное (многоголосое) | iTunes



Файл

Формат: MKV

Качество: BDRip 1080p

Видео: AVC, 9700 Kb/s, 1920x804

Аудио #1: Russian: 48 kHz, AC3 Dolby Digital, 2/0 (L, R) ch, ~192 Kbps | iTunes

Аудио #2: English: 48 kHz, Digital Theater Systems, 3/2 (L, C, R, l, r) + LFE ch, ~1509 Kbps | Original

Субтитры: English

Дополнительно: Сохранены оригинальные чаптеры.



Релиз группы: &



MediaInfo:Complete name: Vozvraschenie.2017.BDRip.1080p.ELEKTRI4KA.UNIONGANG.mkv

Format: Matroska

Format version: Version 4 / Version 2

File size: 7.25 GiB

Duration: 1 h 31 min

Overall bit rate: 11.4 Mb/s

Movie name: .ELEKTRI4KA.UNIONGANG.

Encoded date: UTC 2020-06-16 10:26:59

Writing application: mkvmerge v8.3.0 ('Over the Horizon') 64bit

Writing library: libebml v1.3.1 + libmatroska v1.4.2



Video

ID: 1

Format: AVC

Format/Info: Advanced Video Codec

Format profile: [email protected]

Format settings, CABAC: Yes

Format settings, Reference frames: 9 frames

Codec ID: V_MPEG4/ISO/AVC

Duration: 1 h 31 min

Bit rate: 9 700 kb/s

Width: 1 920 pixels

Height: 804 pixels

Display aspect ratio: 2.40:1

Frame rate mode: Constant

Frame rate: 23.976 (24000/1001) FPS

Color space: YUV

Chroma subsampling: 4:2:0

Bit depth: 8 bits

Scan type: Progressive

Bits/(Pixel*Frame): 0.262

Stream size: 6.17 GiB (85%)

Title: .ELEKTRI4KA.UNIONGANG.

Writing library: x264 core 152 r2851M ba24899

Encoding settings: cabac=1 / ref=9 / deblock=1:-2:-2 / analyse=0x3:0x113 / me=umh / subme=10 / psy=1 / psy_rd=1.05:0.10 / mixed_ref=1 / me_range=32 / chroma_me=1 / trellis=2 / 8x8dct=1 / cqm=0 / deadzone=21, 11 / fast_pskip=0 / chroma_qp_offset=-3 / threads=13 / lookahead_threads=1 / sliced_threads=0 / nr=0 / decimate=1 / interlaced=0 / bluray_compat=0 / constrained_intra=0 / bframes=6 / b_pyramid=2 / b_adapt=2 / b_bias=0 / direct=3 / weightb=1 / open_gop=0 / weightp=2 / keyint=230 / keyint_min=23 / scenecut=40 / intra_refresh=0 / rc_lookahead=60 / rc=2pass / mbtree=1 / bitrate=9700 / ratetol=1.0 / qcomp=0.70 / qpmin=3 / qpmax=69 / qpstep=4 / cplxblur=20.0 / qblur=0.5 / ip_ratio=1.40 / aq=2:1.00

Default: Yes

Forced: No

Color range: Limited

Color primaries: BT.709

Transfer characteristics: BT.709

Matrix coefficients: BT.709



Audio #1

ID: 2

Format: AC-3

Format/Info: Audio Coding 3

Mode extension: CM (complete main)

Format settings, Endianness: Big

Codec ID: A_AC3

Duration: 1 h 31 min

Bit rate mode: Constant

Bit rate: 192 kb/s

Channel(s): 2 channels

Channel positions: Front: L R

Sampling rate: 48.0 kHz

Frame rate: 31.250 FPS (1536 spf)

Bit depth: 16 bits

Compression mode: Lossy

Stream size: 125 MiB (2%)

Title: iTunes

Language: Russian

Default: Yes

Forced: No



Audio #2

ID: 3

Format: DTS

Format/Info: Digital Theater Systems

Mode: 16

Format settings, Endianness: Big

Codec ID: A_DTS

Duration: 1 h 31 min

Bit rate mode: Constant

Bit rate: 1 509 kb/s

Channel(s): 6 channels

Channel positions: Front: L C R, Side: L R, LFE

Sampling rate: 48.0 kHz

Frame rate: 93.750 FPS (512 spf)

Bit depth: 24 bits

Compression mode: Lossy

Stream size: 983 MiB (13%)

Language: English

Default: No

Forced: No



Text

ID: 4

Format: UTF-8

Codec ID: S_TEXT/UTF8

Codec ID/Info: UTF-8 Plain Text

Duration: 1 h 25 min

Bit rate: 38 b/s

Count of elements: 859

Stream size: 23.8 KiB (0%)

Language: English

Default: No

Forced: No



Menu

00:00:00.000: en:00:00:00.000

00:10:38.388: en:00:10:38.388

00:28:34.254: en:00:28:34.254

00:44:13.818: en:00:44:13.818

00:58:46.273: en:00:58:46.273

01:18:29.788: en:01:18:29.788Скриншоты

Discussion

Comments 0

Post Your Comment

Files in this torrent

FILENAMESIZE
Vozvraschenie.2017.BDRip.1080p.ELEKTRI4KA.UNIONGANG.mkv7.3 GB

Alternative Torrents for 'Vozvraschenie'.

TORRENT NAMEADDEDSIZESEEDSPEERSHEALTH
10/3/20208.3 GB00
6/17/2020745 MB00
6/17/20201.5 GB00
6/17/20207.3 GB00
6/17/20204.5 GB00
9/22/20191.4 GB00
9/22/20192.7 GB00
5/1/20192.1 GB00
4/30/20191.5 GB00
4/29/201951.6 GB00
4/27/201949.8 GB00
4/27/20191.4 GB00
4/25/20198.8 GB00
4/18/20191.5 GB00
3/22/201917.2 GB00