Armed 2018 WEB-DL 1080p

Torrent Details

Armed 2018 WEB-DL 1080p

NAME
Armed 2018 WEB-DL 1080p.torrent
CATEGORY
Movies
INFOHASH
8f5df1b9e52ca623e0d440e0c75e2252eb787204
SIZE
4.5 GB in 1 file
ADDED
Uploaded on 17-06-2020 by our crawler pet called "Spidey".
SWARM
0 seeders & 0 peers
RATING
No votes yet.

Please login to vote for this torrent.


Description

Информация о фильме

Название: Вооруженный

Оригинальное название: Armed

Год выхода: 2018

Жанр: боевик, триллер

Режиссер: Марио Ван Пиблз

В ролях: Уильям Фихтнер, Райан Гузман, Фолаке Оловофойеку, Лас Алонсо, Марио Ван Пиблз, Коламбус Шорт, Сэм Литтлфилд, Джемма Даллендер, Юджин Кордеро, Лэйн Гаррисон



О фильме:

В эпицентре сюжета оказывается бывший офицер армии США, который вышел в отставку. Он пытается забыть весь ужас военной службы и начать жить на гражданке с чистого листа. Однако, прошлое его не отпускает. Однажды на его пороге появляется бывший коллега по службе. За обоюдным разговором, мужчина рассказал главному герою жуткую новость. Оказывается, все сотрудники его отдела стали проявлять симптомы некоего заражения. Он просит бывшего офицера разобраться в этом происшествии, ведь здесь явно замешаны опыты над военнослужащими.







Страна: США

Студия: MVP Films

Продолжительность: 02:00:07

Перевод: Профессиональный многоголосый, закадровый [HDRezka Studio]

Реклама: отсутствует



Файл

Кодек: H.264

Качество: WEB-DL 1080p

Видео: AVC, 1916x796 (2.40:1), 23.976 fps ~ 4480 Kbps

Звук:

AC3, 48 KHz, 6 ch ~ 448 Kb/s (русский)

AC3, 48 KHz, 6 ch ~ 384 Kb/s (английский)

Субтитры: английские



MI:

General

Unique ID : 206661239403321156071860245283399394738 (0x9B7981C63C9F17EAB8F5C829F7F5E5B2)

Complete name : J:wotArmed.2018.WEB-DL.1080p.mkv

Format : Matroska

Format version : Version 4 / Version 2

File size : 4.55 GiB

Duration : 2h 0mn

Overall bit rate : 5 421 Kbps

Movie name : Armed 2018

Encoded date : UTC 2020-06-17 06:21:03

Writing application : mkvmerge v7.7.0 ('Six Voices') 32bit built on Feb 28 2015 23:23:00

Writing library : libebml v1.3.1 + libmatroska v1.4.2

Attachements : cover_land.jpg / small_cover.jpg / small_cover_land.jpg / cover.jpg

_STATISTICS_WRITING_APP : mkvmerge v7.7.0 ('Six Voices') 32bit built on Feb 28 2015 23:23:00

_STATISTICS_WRITING_DATE_UTC : 2020-06-17 06:21:03

_STATISTICS_TAGS : BPS DURATION NUMBER_OF_FRAMES NUMBER_OF_BYTES

DURATION : 02:00:06.592000000

NUMBER_OF_FRAMES : 225206

NUMBER_OF_BYTES : 403569152



Video

ID : 1

Format : AVC

Format/Info : Advanced Video Codec

Format profile : [email protected]

Format settings, CABAC : Yes

Format settings, ReFrames : 5 frames

Codec ID : V_MPEG4/ISO/AVC

Duration : 2h 0mn

Bit rate : 4 481 Kbps

Width : 1 916 pixels

Height : 796 pixels

Display aspect ratio : 2.40:1

Frame rate mode : Constant

Frame rate : 23.976 fps

Color space : YUV

Chroma subsampling : 4:2:0

Bit depth : 8 bits

Scan type : Progressive

Bits/(Pixel*Frame) : 0.123

Stream size : 3.76 GiB (83%)

Language : English

Default : Yes

Forced : No

Color range : Limited

Color primaries : BT.709

Transfer characteristics : BT.709

Matrix coefficients : BT.709



Audio #1

ID : 2

Format : AC-3

Format/Info : Audio Coding 3

Mode extension : CM (complete main)

Format settings, Endianness : Big

Codec ID : A_AC3

Duration : 2h 0mn

Bit rate mode : Constant

Bit rate : 448 Kbps

Channel(s) : 6 channels

Channel positions : Front: L C R, Side: L R, LFE

Sampling rate : 48.0 KHz

Compression mode : Lossy

Delay relative to video : 663ms

Stream size : 385 MiB (8%)

Title : hdrezka 5.1

Language : Russian

Default : Yes

Forced : No



Audio #2

ID : 3

Format : AC-3

Format/Info : Audio Coding 3

Mode extension : CM (complete main)

Format settings, Endianness : Big

Codec ID : A_AC3

Duration : 2h 0mn

Bit rate mode : Constant

Bit rate : 384 Kbps

Channel(s) : 6 channels

Channel positions : Front: L C R, Side: L R, LFE

Sampling rate : 48.0 KHz

Compression mode : Lossy

Delay relative to video : -42ms

Stream size : 330 MiB (7%)

Language : English

Default : No

Forced : No



Text

ID : 4

Format : UTF-8

Codec ID : S_TEXT/UTF8

Codec ID/Info : UTF-8 Plain Text

Language : English

Default : No

Forced : No



Menu

00:00:00.000 : en:1

00:03:46.601 : en:2

00:16:45.463 : en:3

00:23:54.683 : en:4

00:30:38.920 : en:5

00:39:44.257 : en:6

00:46:54.812 : en:7

00:52:34.860 : en:8

01:03:22.799 : en:9

01:07:37.261 : en:10

01:16:53.442 : en:11

01:22:45.168 : en:12

01:31:31.068 : en:13

01:41:56.610 : en:14

01:46:42.437 : en:15

01:53:40.229 : en:16





Скриншоты

Discussion

Comments 0

Post Your Comment

Files in this torrent

FILENAMESIZE
Armed.2018.WEB-DL.1080p.mkv4.5 GB

Alternative Torrents for 'Armed'.

TORRENT NAMEADDEDSIZESEEDSPEERSHEALTH
2/22/20211.3 GB19858
2/28/20211.3 GB19255
2/15/20211.3 GB19061
2/15/2021704 MB16856
2/28/2021702 MB16649
2/22/2021703 MB15335
2/9/2021119 MB146272
2/15/20211.3 GB12064
2/22/20211.3 GB11064
1/11/20211.3 GB1051
2/9/20211.3 GB1033
2/22/2021701 MB9937
2/15/2021702 MB8450
2/9/2021704 MB771
2/28/20211.3 GB7558