Любовь актёра 1956 Дубляж Screener Deadmauvlad Советская прокатная копия 1400 MB

Torrent Details


Любовь актёра 1956 Дубляж Screener Deadmauvlad Советская прокатная копия 1400 MB

NAME
Любовь актёра 1956 Дубляж Screener Deadmauvlad Советская прокатная копия 1400 MB.torrent
CATEGORY
Movies
INFOHASH
1c154c7485043c0e079a5c96fc524445250d922c
SIZE
1.4 GB in 0 files
ADDED
Uploaded on 17-06-2020 by our crawler pet called "Spidey".
SWARM
0 seeders & 0 peers
RATING
No votes yet.

Please login to vote for this torrent.


Description

Информация о фильме

Название: Любовь актёра

Оригинальное название: Zangiku monogatari

Год выхода: 1956

Жанр: Драма

Режиссер: Кодзи Сима / Koji Shima

В ролях: Митико Аи, Койти Аихара, Итиро Амано, Синобу Араки, Санэмон Араси, Тикагэ Авасима, Рёносукэ Адзума, Дзюн Фудзикава, Санторо Гадай, Сэйсиро Хара



О фильме:

По повести Сёфу Мурамацу. Фильм посвящён актёрам прославленного японского театра "Кабуки". Действие фильма происходит в Японии в 1885 году. Главный герой Кикуносуке Оноэ (дебют в кино театрального актёра Сетаро Ханаяги) является приёмным сыном известного актёра театра кабуки, обучающего его профессиональному мастерству, чтобы тот в дальнейшем стал его преемником и продолжателем актёрской династии. Оноэ уходит из семьи к большому негодованию отца. Он решает оттачивать актёрское мастерство вне пределов Токио и уезжает в Осаку.









Страна: Япония

Студия: Daiei Kyoto

Продолжительность: 01:33:52

Перевод: Профессиональный (дублированный) | Центральная студия киноактёра "Мосфильма"



Файл

Кодек: XviD

Качество: Screener| Исх. Screener by xfiles|

Видео: 720x544 (4:3), 25.000 fps, 1 821 kb/s (0.186 bit/pixel)

Звук: AC3, 48.0 kHz, 2 ch, 256 kb/s, CBR

Субтитры: отсутствуют



MediaInfoGeneral

Complete name : Любовь.актёра.1956.Дубляж.Screener.Deadmauvlad.Советская.прокатная.копия.1400.MB.avi

Format : AVI

Format/Info : Audio Video Interleave

File size : 1.37 GiB

Duration : 1 h 33 min

Overall bit rate : 2 087 kb/s

Movie name : Любовь.актёра.1956.Дубляж.Screener.Deadmauvlad.Советская.прокатная.копия

Director : Encoder by Deadmauvlad

Genre : драма

Writing application : VirtualDubMod 1.5.10.3 | www.virtualdub-fr.org || (build 2550/release)

Original source form/Name : Фильм

Copyright : Encoder by Deadmauvlad

Comment : Encoder by Deadmauvlad



Video

ID : 0

Format : MPEG-4 Visual

Format profile : Advanced [email protected]

Format settings : BVOP1 / Custom Matrix

Format settings, BVOP : 1

Format settings, QPel : No

Format settings, GMC : No warppoints

Format settings, Matrix : Custom

Codec ID : XVID

Codec ID/Hint : XviD

Duration : 1 h 33 min

Bit rate : 1 821 kb/s

Width : 720 pixels

Height : 544 pixels

Display aspect ratio : 4:3

Frame rate : 25.000 FPS

Color space : YUV

Chroma subsampling : 4:2:0

Bit depth : 8 bits

Scan type : Progressive

Compression mode : Lossy

Bits/(Pixel*Frame) : 0.186

Stream size : 1.19 GiB (87%)

Writing library : XviD 73



Audio

ID : 1

Format : AC-3

Format/Info : Audio Coding 3

Commercial name : Dolby Digital

Codec ID : 2000

Duration : 1 h 33 min

Bit rate mode : Constant

Bit rate : 256 kb/s

Channel(s) : 2 channels

Channel layout : L R

Sampling rate : 48.0 kHz

Frame rate : 31.250 FPS (1536 SPF)

Bit depth : 16 bits

Compression mode : Lossy

Stream size : 172 MiB (12%)

Alignment : Split accross interleaves

Interleave, duration : 40 ms (1.00 video frame)

Interleave, preload duration : 500 ms



Скриншоты Резервные скриншоты



Релиз / Автор рипа: Deadmauvlad ^_^



Discussion

Comments 0

Post Your Comment

Torrent Files (Unavailable)

Please check back later to get a list of all files included in this torrent.

Alternative Torrents for 'Любовь актёра Дубляж Screener Deadmauvlad Советская прокатная копия MB'.

TORRENT NAMEADDEDSIZESEEDSPEERSHEALTH
6/17/20201.4 GB00