Треугольник (2009) BDRip-AVC O M [-=DoMiNo=-]

Torrent Details


Треугольник (2009) BDRip-AVC O M <span style=color:#fc9c6d>[-=DoMiNo=-]</span>

NAME
Треугольник (2009) BDRip-AVC O M [-=DoMiNo=-].torrent
CATEGORY
Movies
INFOHASH
00d1a92d428ef62e976cf9f913d5ce445f71f389
SIZE
742 MB in 0 files
ADDED
Uploaded on 17-06-2020 by our crawler pet called "Spidey".
SWARM
0 seeders & 0 peers
RATING
No votes yet.

Please login to vote for this torrent.


Description

Информация о фильме

Название: Треугольник

Оригинальное название: Triangle

Год выхода: 2009

Жанр: Ужасы, триллер, детектив

Режиссер: Кристофер Смит

В ролях: Мелисса Джордж, Джошуа МакИвор, Джек Тейлор, Майкл Дорман, Генри Никсон, Рэйчал Карпани, Эмма Ланг, Лайам Хемсворт, Брайан Пробетс



О фильме:

Грег приглашает свою подругу Джесс, молодую мать-одиночку, провести день на яхте в кругу своих друзей. Начавшийся сильный шторм переворачивает судно, и оставшиеся в живых вынуждены дожидаться помощи, цепляясь за перевернутый корпус яхты. Спасение приходит в виде огромного океанического лайнера. Судно оказывается пустым, часы на борту остановились. Но они не одни на этом огромном корабле - за ними кто-то неустанно следит…







Выпущено: Великобритания, Австралия

Студия: Dan Films, Framestore, Icon Entertainmnet International

Продолжительность: 01:38:52

Перевод: Профессиональный (двуголосый, закадровый) R5 от «Вольга»

Субтитры: Русские, английские



Файл

Формат видео: MKV

Качество видео: BDRip-AVC | Open Matte | NOR Transfer

Видео: 704x396 at 24.00 fps, x264, ~989 kbps, 0.148 bpp

Аудио: AAC, ~64 kbps, 2 ch

Формат субтитров: softsub (SRT)



***Релиз от: -=DoMiNo=-



***Сравнения => UK Blu-ray vs NOR Blu-Ray Open Matte



M/IGeneral

Format : Matroska

Format version : Version 4

File size : 742 MiB

Duration : 1 h 38 min

Overall bit rate : 1 049 kb/s

Movie name : Треугольник.(2009).BDRip-AVC.O.M.[-=DoMiNo=-]

Encoded date : UTC 2020-06-15 10:25:53

Writing application : mkvmerge v47.0.0 ('Black Flag') 64-bit

Writing library : libebml v1.3.10 + libmatroska v1.5.2

Cover : Yes

Attachments : cover.jpg / cover 2.jpg



Video

ID : 1

Format : AVC

Format/Info : Advanced Video Codec

Format profile : [email protected]

Format settings : CABAC / 14 Ref Frames

Format settings, CABAC : Yes

Format settings, Reference : 14 frames

Codec ID : V_MPEG4/ISO/AVC

Duration : 1 h 38 min

Bit rate : 989 kb/s

Width : 704 pixels

Height : 396 pixels

Display aspect ratio : 16:9

Frame rate mode : Constant

Frame rate : 24.000 FPS

Color space : YUV

Chroma subsampling : 4:2:0

Bit depth : 8 bits

Scan type : Progressive

Bits/(Pixel*Frame) : 0.148

Stream size : 695 MiB (94%)

Writing library : x264 core 160 r3007 235ce61

Encoding settings : cabac=1 / ref=14 / deblock=1:-3:-3 / analyse=0x3:0x133 / me=umh / subme=11 / psy=1 / psy_rd=1.00:0.00 / mixed_ref=1 / me_range=32 / chroma_me=1 / trellis=2 / 8x8dct=1 / cqm=0 / deadzone=21,11 / fast_pskip=0 / chroma_qp_offset=-2 / threads=6 / lookahead_threads=1 / sliced_threads=0 / nr=0 / decimate=0 / interlaced=0 / bluray_compat=0 / constrained_intra=0 / bframes=14 / b_pyramid=2 / b_adapt=2 / b_bias=0 / direct=3 / weightb=1 / open_gop=0 / weightp=2 / keyint=250 / keyint_min=23 / scenecut=40 / intra_refresh=0 / rc_lookahead=60 / rc=2pass / mbtree=0 / bitrate=989 / ratetol=1.0 / qcomp=0.70 / qpmin=0 / qpmax=69 / qpstep=4 / cplxblur=20.0 / qblur=0.5 / vbv_maxrate=50000 / vbv_bufsize=62500 / nal_hrd=none / filler=0 / ip_ratio=1.40 / pb_ratio=1.30 / aq=3:1.00

Language : English

Default : Yes

Forced : No

Color range : Limited

Color primaries : BT.709

Transfer characteristics : BT.709

Matrix coefficients : BT.709



Audio

ID : 2

Format : AAC LC SBR

Format/Info : Advanced Audio Codec Low Complexity with Spectral Band Replication

Commercial name : HE-AAC

Format settings : Implicit

Codec ID : A_AAC-2

Duration : 1 h 38 min

Bit rate : 64.0 kb/s

Channel(s) : 2 channels

Channel layout : L R

Sampling rate : 48.0 kHz

Frame rate : 23.438 FPS (2048 SPF)

Compression mode : Lossy

Stream size : 45.3 MiB (6%)

Title : DVO_[R5]

Language : Russian

Default : Yes

Forced : No



Text #1

ID : 3

Format : UTF-8

Codec ID : S_TEXT/UTF8

Codec ID/Info : UTF-8 Plain Text

Duration : 1 h 33 min

Bit rate : 55 b/s

Count of elements : 832

Stream size : 37.9 KiB (0%)

Language : Russian

Default : No

Forced : No



Text #2

ID : 4

Format : UTF-8

Codec ID : S_TEXT/UTF8

Codec ID/Info : UTF-8 Plain Text

Duration : 1 h 33 min

Bit rate : 60 b/s

Count of elements : 847

Stream size : 40.9 KiB (0%)

Language : Russian

Default : No

Forced : No



Text #3

ID : 5

Format : UTF-8

Codec ID : S_TEXT/UTF8

Codec ID/Info : UTF-8 Plain Text

Duration : 1 h 33 min

Bit rate : 33 b/s

Count of elements : 830

Stream size : 22.6 KiB (0%)

Language : English

Default : No

Forced : No



Menu

00:00:00.000 : :Chapter 01

00:00:48.000 : :Chapter 02

00:08:10.833 : :Chapter 03

00:16:15.500 : :Chapter 04

00:25:30.333 : :Chapter 05

00:33:24.083 : :Chapter 06

00:42:04.541 : :Chapter 07

00:50:08.416 : :Chapter 08

01:01:17.916 : :Chapter 09

01:10:02.750 : :Chapter 10

01:19:32.208 : :Chapter 11

01:34:14.000 : :Chapter 12Скриншоты

Discussion

Comments 0

Post Your Comment

Torrent Files (Unavailable)

Please check back later to get a list of all files included in this torrent.

Alternative Torrents for 'Треугольник AVC'.

TORRENT NAMEADDEDSIZESEEDSPEERSHEALTH
6/17/2020742 MB00
10/5/20192.9 GB00
3/26/20191.2 GB00
3/13/20192.9 GB00
3/13/20192 GB00