Resident Evil - Extinction (2007) (1080p BDRip X265 10bit DTS-HD MA 5.1 - HxD) [TAoE]

Torrent Details

Resident Evil - Extinction (2007) (1080p BDRip x265 10bit DTS-HD MA 5.1 - HxD) <span style=color:#fc9c6d>[TAoE]</span>

NAME
Resident Evil - Extinction (2007) (1080p BDRip x265 10bit DTS-HD MA 5.1 - HxD) [TAoE].torrent
CATEGORY
Movies
INFOHASH
1d9ce031431edd19e553a4d7f92e7ceff3f9eddf
SIZE
7.5 GB in 1 file
ADDED
Uploaded on 17-06-2020 by our crawler pet called "Spidey".
SWARM
0 seeders & 0 peers
RATING
No votes yet.

Please login to vote for this torrent.


Description









Resident Evil - Extinction (2007) IMDb

























Media Information



General

Unique ID                                : 294862455725222637655417694955953644964 (0xDDD4717BD34FA9DE5321C4501512E5A4)

Complete name                            : Resident Evil - Extinction (2007) (1080p BDRip x265 10bit DTS-HD MA 5.1 - HxD) [TAoE].mkv

Format                                   : Matroska

Format version                           : Version 4

File size                                : 7.48 GiB

Duration                                 : 1 h 34 min

Overall bit rate mode                    : Variable

Overall bit rate                         : 11.4 Mb/s

Movie name                               : Resident Evil - Extinction (2007) (1080p BDRip x265 10bit DTS-HD MA 5.1 - HxD) [TAoE].mkv

Encoded date                             : UTC 2020-06-12 03:04:58

Writing application                      : mkvmerge v44.0.0 ('Domino') 64-bit

Writing library                          : libebml v1.3.10 + libmatroska v1.5.2



Video

ID                                       : 1

Format                                   : HEVC

Format/Info                              : High Efficiency Video Coding

Format profile                           : Main [email protected]@Main

Codec ID                                 : V_MPEGH/ISO/HEVC

Duration                                 : 1 h 34 min

Bit rate                                 : 8 254 kb/s

Width                                    : 1 920 pixels

Height                                   : 800 pixels

Display aspect ratio                     : 2.40:1

Frame rate mode                          : Constant

Frame rate                               : 23.976 (24000/1001) FPS

Color space                              : YUV

Chroma subsampling                       : 4:2:0

Bit depth                                : 10 bits

Bits/(Pixel*Frame)                       : 0.224

Stream size                              : 5.42 GiB (73%)

Writing library                          : x265 3.3+2-gbe2d82093:[Windows][GCC 9.2.0][64 bit] 10bit

Encoding settings                        : cpuid=1111039 / frame-threads=3 / numa-pools=8 / wpp / no-pmode / no-pme / no-psnr / no-ssim / log-level=2 / input-csp=1 / input-res=1920x800 / interlace=0 / total-frames=135360 / level-idc=0 / high-tier=1 / uhd-bd=0 / ref=4 / no-allow-non-conformance / no-repeat-headers / annexb / no-aud / no-hrd / info / hash=0 / no-temporal-layers / open-gop / min-keyint=23 / keyint=250 / gop-lookahead=0 / bframes=8 / b-adapt=2 / b-pyramid / bframe-bias=0 / rc-lookahead=80 / lookahead-slices=4 / scenecut=40 / hist-scenecut=0 / radl=0 / no-splice / no-intra-refresh / ctu=64 / min-cu-size=8 / no-rect / no-amp / max-tu-size=32 / tu-inter-depth=1 / tu-intra-depth=1 / limit-tu=0 / rdoq-level=2 / dynamic-rd=0.00 / no-ssim-rd / signhide / no-tskip / nr-intra=0 / nr-inter=0 / no-constrained-intra / no-strong-intra-smoothing / max-merge=3 / limit-refs=3 / limit-modes / me=3 / subme=5 / merange=57 / temporal-mvp / no-frame-dup / no-hme / weightp / no-weightb / no-analyze-src-pics / deblock=0:0 / sao / no-sao-non-deblock / rd=4 / selective-sao=4 / no-early-skip / rskip / no-fast-intra / no-tskip-fast / no-cu-lossless / no-b-intra / no-splitrd-skip / rdpenalty=0 / psy-rd=1.30 / psy-rdoq=2.00 / no-rd-refine / no-lossless / cbqpoffs=0 / crqpoffs=0 / rc=crf / crf=18.0 / qcomp=0.60 / qpstep=4 / stats-write=0 / stats-read=0 / ipratio=1.40 / pbratio=1.30 / aq-mode=4 / aq-strength=1.10 / cutree / zone-count=0 / no-strict-cbr / qg-size=32 / no-rc-grain / qpmax=69 / qpmin=0 / no-const-vbv / sar=0 / overscan=0 / videoformat=5 / range=0 / colorprim=2 / transfer=2 / colormatrix=2 / chromaloc=0 / display-window=0 / cll=0,0 / min-luma=0 / max-luma=1023 / log2-max-poc-lsb=8 / vui-timing-info / vui-hrd-info / slices=1 / no-opt-qp-pps / no-opt-ref-list-length-pps / no-multi-pass-opt-rps / scenecut-bias=0.05 / hist-threshold=0.01 / no-opt-cu-delta-qp / no-aq-motion / no-hdr10 / no-hdr10-opt / no-dhdr10-opt / no-idr-recovery-sei / analysis-reuse-level=0 / analysis-save-reuse-level=0 / analysis-load-reuse-level=0 / scale-factor=0 / refine-intra=0 / refine-inter=0 / refine-mv=1 / refine-ctu-distortion=0 / no-limit-sao / ctu-info=0 / no-lowpass-dct / refine-analysis-type=0 / copy-pic=1 / max-ausize-factor=1.0 / no-dynamic-refine / no-single-sei / no-hevc-aq / no-svt / no-field / qp-adaptation-range=1.00 / no-scenecut-aware-qpconformance-window-offsets / right=0 / bottom=0

Default                                  : Yes

Forced                                   : No



Audio

ID                                       : 2

Format                                   : DTS XLL

Format/Info                              : Digital Theater Systems

Commercial name                          : DTS-HD Master Audio

Codec ID                                 : A_DTS

Duration                                 : 1 h 34 min

Bit rate mode                            : Variable

Bit rate                                 : 3 116 kb/s

Channel(s)                               : 6 channels

Channel layout                           : C L R Ls Rs LFE

Sampling rate                            : 48.0 kHz

Frame rate                               : 93.750 FPS (512 SPF)

Bit depth                                : 24 bits

Compression mode                         : Lossless

Stream size                              : 2.05 GiB (27%)

Title                                    : DTS-HD MA English Audio

Language                                 : English

Default                                  : No

Forced                                   : No



Text

ID                                       : 3

Format                                   : PGS

Muxing mode                              : zlib

Codec ID                                 : S_HDMV/PGS

Codec ID/Info                            : Picture based subtitle format used on BDs/HD-DVDs

Duration                                 : 1 h 28 min

Bit rate                                 : 15.5 kb/s

Count of elements                        : 1124

Stream size                              : 9.87 MiB (0%)

Title                                    : English

Language                                 : English

Default                                  : No

Forced                                   : No



Menu

00:00:00.000                             : en:Chapter 00

00:07:32.368                             : en:Chapter 01

00:13:39.318                             : en:Chapter 02

00:18:25.437                             : en:Chapter 03

00:25:13.386                             : en:Chapter 04

00:30:07.806                             : en:Chapter 05

00:32:18.102                             : en:Chapter 06

00:38:53.497                             : en:Chapter 07

00:44:21.784                             : en:Chapter 08

00:50:56.053                             : en:Chapter 09

00:55:23.653                             : en:Chapter 10

01:01:46.160                             : en:Chapter 11

01:08:50.376                             : en:Chapter 12

01:14:42.769                             : en:Chapter 13

01:19:12.789                             : en:Chapter 14

01:24:15.425                             : en:Chapter 15









Source



General

Unique ID                                : 232587220549491024761117737944423307794 (0xAEFAAB55873621C689B01AC12C339A12)

Complete name                            : Resident.Evil.Extinction.2007.BluRay.1080p.DTS-HD.MA.AVC.Remux-HiFi.mkv

Format                                   : Matroska

Format version                           : Version 2

File size                                : 18.9 GiB

Duration                                 : 1 h 34 min

Overall bit rate mode                    : Variable

Overall bit rate                         : 28.8 Mb/s

Encoded date                             : UTC 2011-07-14 05:17:12

Writing application                      : mkvmerge v4.9.1 ('Ich will') built on Jul 11 2011 23:53:15

Writing library                          : libebml v1.2.1 + libmatroska v1.1.1



Video

ID                                       : 1

Format                                   : AVC

Format/Info                              : Advanced Video Codec

Format profile                           : [email protected]

Format settings                          : CABAC / 2 Ref Frames

Format settings, CABAC                   : Yes

Format settings, Reference frames        : 2 frames

Format settings, GOP                     : M=1, N=10

Codec ID                                 : V_MPEG4/ISO/AVC

Duration                                 : 1 h 34 min

Bit rate mode                            : Variable

Width                                    : 1 920 pixels

Height                                   : 1 080 pixels

Display aspect ratio                     : 16:9

Frame rate mode                          : Constant

Frame rate                               : 23.976 (24000/1001) FPS

Color space                              : YUV

Chroma subsampling                       : 4:2:0

Bit depth                                : 8 bits

Scan type                                : Progressive

Language                                 : English

Default                                  : Yes

Forced                                   : No



Audio #1

ID                                       : 2

Format                                   : DTS XLL

Format/Info                              : Digital Theater Systems

Commercial name                          : DTS-HD Master Audio

Codec ID                                 : A_DTS

Duration                                 : 1 h 34 min

Bit rate mode                            : Variable

Channel(s)                               : 6 channels

Channel layout                           : C L R Ls Rs LFE

Sampling rate                            : 48.0 kHz

Frame rate                               : 93.750 FPS (512 SPF)

Bit depth                                : 24 bits

Compression mode                         : Lossless

Title                                    : DTS-HD MA English Audio

Default                                  : Yes

Forced                                   : No



Audio #2

ID                                       : 3

Format                                   : AC-3

Format/Info                              : Audio Coding 3

Commercial name                          : Dolby Digital

Codec ID                                 : A_AC3

Duration                                 : 1 h 34 min

Bit rate mode                            : Constant

Bit rate                                 : 448 kb/s

Channel(s)                               : 6 channels

Channel layout                           : L R C LFE Ls Rs

Sampling rate                            : 48.0 kHz

Frame rate                               : 31.250 FPS (1536 SPF)

Compression mode                         : Lossy

Stream size                              : 302 MiB (2%)

Title                                    : ACS English Audio

Language                                 : English

Service kind                             : Complete Main

Default                                  : No

Forced                                   : No



Text

ID                                       : 4

Format                                   : PGS

Muxing mode                              : zlib

Codec ID                                 : S_HDMV/PGS

Codec ID/Info                            : Picture based subtitle format used on BDs/HD-DVDs

Title                                    : English

Language                                 : English

Default                                  : Yes

Forced                                   : No



Menu

00:00:00.000                             : en:Chapter 00

00:07:32.368                             : en:Chapter 01

00:13:39.318                             : en:Chapter 02

00:18:25.437                             : en:Chapter 03

00:25:13.386                             : en:Chapter 04

00:30:07.806                             : en:Chapter 05

00:32:18.102                             : en:Chapter 06

00:38:53.497                             : en:Chapter 07

00:44:21.784                             : en:Chapter 08

00:50:56.053                             : en:Chapter 09

00:55:23.653                             : en:Chapter 10

01:01:46.160                             : en:Chapter 11

01:08:50.376                             : en:Chapter 12

01:14:42.769                             : en:Chapter 13

01:19:12.789                             : en:Chapter 14

01:24:15.425                             : en:Chapter 15







Hello everyone,

We are TAoE, a small team of passionate encoders who love encoding. We try our best to provide you with high quality releases.



Requests for movies and shows are welcome.

We have a form for encode requests which can be found here

Encode requests form

submit your request and it will be added to our encoding request list

You can view our encoding request list here

Encode requests list





When or if we encode it will depend on if we can obtain a good source to encode with and

if one of the TAoE encoders chooses to encode it. Unfortunately we are not able to encode everything,

new members are welcome as that helps us encode more content!



If you would like to join TAoE submit your request here!

TAoE member applications form









.........................................................................................................................................

Discussion

Comments 0

Post Your Comment

Files in this torrent

FILENAMESIZE
Resident Evil - Extinction (2007) (1080p BDRip x265 10bit DTS-HD MA 5.1 - HxD) [TAoE].mkv7.5 GB

Alternative Torrents for 'Resident Evil Extinction bit DTSHD MA HxD'.

There are no alternative torrents found.