The King Of Staten Island (2020) REPACK 2160p HDR 5 1 X265 10bit Phun Psyz

Torrent Details

The King of Staten Island (2020) REPACK 2160p HDR 5 1 x265 10bit Phun Psyz
The King of Staten Island (2020) REPACK 2160p HDR 5 1 x265 10bit Phun Psyz

NAME
The King of Staten Island (2020) REPACK 2160p HDR 5 1 x265 10bit Phun Psyz.torrent
CATEGORY
Movies
INFOHASH
73eef1bcdc4411f2dcac218afe6c631b157cfd63
SIZE
1.8 GB in 1 file
ADDED
Uploaded on 17-06-2020 by our crawler pet called "Spidey".
SWARM
0 seeders & 0 peers
RATING
No votes yet.

Please login to vote for this torrent.


Description

Repack: Original upload was x264 8bit mp4; not sure why it turned out as well as it did

"Friends don't let Friends drink and encode nor upload with a hangover whilst your mom nibbles on my ear."  Guess I need some friends.



www.imdb.com/title/tt9686708/



Scott has been a case of arrested development ever since his firefighter father died when he was seven. He's now reached his mid-20s having achieved little, chasing a dream of becoming a tattoo artist that seems far out of reach. As his ambitious younger sister heads off to college, Scott is still living with his exhausted ER nurse mother and spends his days smoking weed, hanging with the guys - Oscar, Igor and Richie - and secretly hooking up with his childhood friend Kelsey. But when his mother starts dating a loudmouth firefighter named Ray, it sets off a chain of events that will force Scott to grapple with his grief and take his first tentative steps toward moving forward in life.



Source: huzzah (web)







Format                      : Matroska

Format version              : Version 4

File size                   : 1.81 GiB

Duration                    : 2 h 17 min

Overall bit rate            : 1 885 kb/s

Writing application         : HandBrake 1.2.0 2018121700

Writing library             : Lavf58.20.100



Video

ID                          : 1

Format                      : HEVC

Format/Info                 : High Efficiency Video Coding

Format profile              : Main [email protected]@High

Codec ID                    : V_MPEGH/ISO/HEVC

Duration                    : 2 h 17 min

Bit rate                    : 1 528 kb/s

Width                       : 3 840 pixels

Height                      : 1 600 pixels

Display aspect ratio        : 2.40:1

Frame rate mode             : Constant

Frame rate                  : 23.976 (24000/1001) FPS

Color space                 : YUV

Chroma subsampling          : 4:2:0

Bit depth                   : 10 bits

Bits/(Pixel*Frame)          : 0.010

Stream size                 : 1.46 GiB (81%)

Writing library             : x265 2.9:[Windows][GCC 7.1.0][64 bit] 10bit

Color range                 : Full

Color primaries             : BT.2020

Transfer characteristics    : PQ

Matrix coefficients         : BT.2020 non-constant



Audio

ID                          : 2

Format                      : AC-3

Format/Info                 : Audio Coding 3

Commercial name             : Dolby Digital

Codec ID                    : A_AC3

Duration                    : 2 h 17 min

Bit rate mode               : Constant

Bit rate                    : 320 kb/s

Channel(s)                  : 6 channels

Channel layout              : L R C LFE Ls Rs

Sampling rate               : 48.0 kHz

Frame rate                  : 31.250 FPS (1536 SPF)

Compression mode            : Lossy

Delay relative to video     : -5 ms

Stream size                 : 314 MiB (17%)

Title                       : Surround



Text

Language                    : English

Default                     : No

Forced                      : No

Discussion

Comments 0

Post Your Comment

Files in this torrent

FILENAMESIZE
The King of Staten Island (2020) REPACK 2160p HDR 5.1 x265 10bit Phun Psyz.mkv1.8 GB

Alternative Torrents for 'King of Staten Island REPACK HDR bit Phun Psyz'.

TORRENT NAMEADDEDSIZESEEDSPEERSHEALTH
8/3/20201.3 GB55823730
8/3/20201.2 GB55213682
8/3/20201.2 GB55023675
7/31/20201.6 GB2101575
8/3/20201.5 GB1937255
8/1/20201.3 GB142226
8/3/20201.3 GB111949
Yesterday699 MB1114517
8/1/2020697 MB103018
7/31/20205.2 GB1030132
7/23/202092 MB100113
7/25/20201.5 GB99935
7/28/20204.4 GB949110
Yesterday699 MB942284
Yesterday109 MB84762