[Deadmau- RAWS] Клуб Эйкен OVA 2003 RUS ENG JAP DVDRip Deadmauvlad

Torrent Details


[Deadmau- RAWS] Клуб Эйкен OVA 2003 RUS ENG JAP DVDRip Deadmauvlad

NAME
[Deadmau- RAWS] Клуб Эйкен OVA 2003 RUS ENG JAP DVDRip Deadmauvlad.torrent
CATEGORY
Anime
INFOHASH
0f71084c80db2fd4a7b04c1f734d38798bd22fa3
SIZE
704 MB in 0 files
ADDED
Uploaded on 17-06-2020 by our crawler pet called "Spidey".
SWARM
0 seeders & 0 peers
RATING
No votes yet.

Please login to vote for this torrent.


Description

Информация о фильме

Название: Клуб Эйкен

Оригинальное название: Eiken Eikenbu yori Ai wo Komete

Год выхода: 2003

Выпуск: с 25 июня 2003 по 23 июня 2004

Режиссер: Охата Киётака

Автор оригинала: Мацуяма Сэйдзи

Снято по манге: Eiken

Жанр: гарем, комедия, романтика, сэйнэн, школа, этти

В главных ролях: Акэно Ватанабэ, Miwa Ohshiro, Масуми Асано, Марина Оно, Маи Кадоваки, Токо Ито, Тиэми Исимацу, Emi Yabusaki, Томоко Каваками, Такахиро Сакурай



О фильме: Школа Zasshono - это огромное частное учебное заведение, содержащее 54000 учеников младшей, средней и старшей школы. Среди огромного числа устраиваемых школой мероприятий выделяется одно: клуб Eiken. Вся его деятельность покрыта пеленой таинственности, что никак не выставляет его в благоприятном свете. Факт, который больше всего нас беспокоит, что членами этого клуба становятся как правило милые и обятельные девушки, например отличница в учебе и в спорте Azumo Chiharu. Mifune Densuke, мальчика-первогодку, силой заставляют присоединиться к клубу Eiken! Вместе с этим его обычно скучная жизнь наполняется страстями, романтикой и массой проблем...







Страна: Япония

Студия: J.C. Staff

Продолжительность: 2 серии x ~00:30:00

Перевод: Любительский многоголосый (Закадровый) Hell, Aska, Tina | [Shiza Project]

Возрастное ограничение: 18+ [Запрещено для детей]



Файл

Качество: DVDRip | Исх. DVD5 thx alpojda |

Видео: 720x528 (4:3), 23.976 fps, 1 290 kb/s (0.142 bit/pixel)

Аудио №1: AC3, 48.0 kHz, 2 ch, 192 kb/s, CBR | | Shiza

Аудио №2: AC3, 48.0 kHz, 2 ch, 192 kb/s, CBR | | Japan (Оригинал)

Субтитры: Русские (Е. Лурье); English (Full Sub)



MediaInfoGeneral

Complete name : [Deadmau- RAWS] Клуб.Эйкен.OVA.2003.RUS.ENG.JAP.DVDRip.Deadmauvlad.Ep.01.avi

Format : AVI

Format/Info : Audio Video Interleave

File size : 352 MiB

Duration : 29 min 8 s

Overall bit rate : 1 689 kb/s

Movie name : [Deadmau- RAWS] Клуб.Эйкен.OVA.2003.RUS.ENG.JAP.DVDRip.Deadmauvlad.Ep.01

Director : Encoder by Deadmauvlad

Genre : школа, этти

Writing application : VirtualDubMod 1.5.10.3 | www.virtualdub-fr.org || (build 2550/release)

Original source form/Name : Аниме

Copyright : Encoder by Deadmauvlad

Comment : Encoder by Deadmauvlad



Video

ID : 0

Format : MPEG-4 Visual

Format profile : Advanced [email protected]

Format settings : BVOP1 / Custom Matrix

Format settings, BVOP : 1

Format settings, QPel : No

Format settings, GMC : No warppoints

Format settings, Matrix : Custom

Codec ID : XVID

Codec ID/Hint : XviD

Duration : 29 min 8 s

Bit rate : 1 290 kb/s

Width : 720 pixels

Height : 528 pixels

Display aspect ratio : 4:3

Frame rate : 23.976 (24000/1001) FPS

Color space : YUV

Chroma subsampling : 4:2:0

Bit depth : 8 bits

Scan type : Progressive

Compression mode : Lossy

Bits/(Pixel*Frame) : 0.142

Stream size : 269 MiB (76%)

Writing library : XviD 73



Audio #1

ID : 1

Format : AC-3

Format/Info : Audio Coding 3

Commercial name : Dolby Digital

Codec ID : 2000

Duration : 29 min 8 s

Bit rate mode : Constant

Bit rate : 192 kb/s

Channel(s) : 2 channels

Channel layout : L R

Sampling rate : 48.0 kHz

Frame rate : 31.250 FPS (1536 SPF)

Bit depth : 16 bits

Compression mode : Lossy

Stream size : 40.0 MiB (11%)

Alignment : Split accross interleaves

Interleave, duration : 42 ms (1.00 video frame)

Interleave, preload duration : 500 ms



Audio #2

ID : 2

Format : AC-3

Format/Info : Audio Coding 3

Commercial name : Dolby Digital

Codec ID : 2000

Duration : 29 min 8 s

Bit rate mode : Constant

Bit rate : 192 kb/s

Channel(s) : 2 channels

Channel layout : L R

Sampling rate : 48.0 kHz

Frame rate : 31.250 FPS (1536 SPF)

Bit depth : 16 bits

Compression mode : Lossy

Stream size : 40.0 MiB (11%)

Alignment : Split accross interleaves

Interleave, duration : 42 ms (1.00 video frame)

Interleave, preload duration : 500 ms



Скриншоты Резервные скриншоты



Релиз / Автор рипа: Deadmauvlad ^_^



Discussion

Comments 0

Post Your Comment

Torrent Files (Unavailable)

Please check back later to get a list of all files included in this torrent.

Alternative Torrents for 'Deadmau RAWS Клуб Эйкен OVA RUS ENG JAP DVDRip Deadmauvlad'.

TORRENT NAMEADDEDSIZESEEDSPEERSHEALTH
6/17/2020704 MB00