[Deadmau- RAWS] Eiken Eikenbu Yori Ai Wo Komete OVA 2003 RUS ENG JAP DVDRip-AVC 8 Bit Ver Deadmauvlad

Torrent Details


[Deadmau- RAWS] Eiken Eikenbu yori Ai wo Komete OVA 2003 RUS ENG JAP DVDRip-AVC 8 Bit Ver Deadmauvlad

NAME
[Deadmau- RAWS] Eiken Eikenbu yori Ai wo Komete OVA 2003 RUS ENG JAP DVDRip-AVC 8 Bit Ver Deadmauvlad.torrent
CATEGORY
Anime
INFOHASH
481c81db605b560ead48465e72e3c4eae7d2968f
SIZE
1.8 GB in 0 files
ADDED
Uploaded on 17-06-2020 by our crawler pet called "Spidey".
SWARM
0 seeders & 0 peers
RATING
No votes yet.

Please login to vote for this torrent.


Description

Информация о фильме

Название: Клуб Эйкен

Оригинальное название: Eiken Eikenbu yori Ai wo Komete

Год выхода: 2003

Выпуск: с 25 июня 2003 по 23 июня 2004

Режиссер: Охата Киётака

Автор оригинала: Мацуяма Сэйдзи

Снято по манге: Eiken

Жанр: гарем, комедия, романтика, сэйнэн, школа, этти

В главных ролях: Акэно Ватанабэ, Miwa Ohshiro, Масуми Асано, Марина Оно, Маи Кадоваки, Токо Ито, Тиэми Исимацу, Emi Yabusaki, Томоко Каваками, Такахиро Сакурай



О фильме: Школа Zasshono - это огромное частное учебное заведение, содержащее 54000 учеников младшей, средней и старшей школы. Среди огромного числа устраиваемых школой мероприятий выделяется одно: клуб Eiken. Вся его деятельность покрыта пеленой таинственности, что никак не выставляет его в благоприятном свете. Факт, который больше всего нас беспокоит, что членами этого клуба становятся как правило милые и обятельные девушки, например отличница в учебе и в спорте Azumo Chiharu. Mifune Densuke, мальчика-первогодку, силой заставляют присоединиться к клубу Eiken! Вместе с этим его обычно скучная жизнь наполняется страстями, романтикой и массой проблем...







Страна: Япония

Студия: J.C. Staff

Продолжительность: 2 серии x ~00:30:00

Перевод: Любительский многоголосый (Закадровый) Hell, Aska, Tina | [Shiza Project]

Перевод: Любительский двухголосый (Закадровый) Cuba77, Трина Дубовицкая | [AniDub]

Перевод: Любительский Одноголосый Закадровый Е. Лурье

Возрастное ограничение: 18+ [Запрещено для детей]



Файл

Кодек: AVC [8 bit Version]

Качество: DVDRip-AVC 720p | Исх. DVD5 thx alpojda |

Видео: 960x720 (4:3), 23.976 fps, 3 500 kb/s (0.211 bit/pixel)

Аудио №1: AC3, 48.0 kHz, 2 ch, 192 kb/s, CBR | | Shiza

Аудио №2: AC3, 48.0 kHz, 2 ch, 192 kb/s, CBR | | AniDub

Аудио №3: AC3, 48.0 kHz, 2 ch, 224 kb/s, CBR | | Е. Лурье

Аудио №4: AC3, 48.0 kHz, 2 ch, 224 kb/s, CBR | | Japan (Оригинал)

Субтитры: Русские (Е. Лурье); English (Full Sub)



MediaInfoGeneral

Unique ID : 179234249599785169610844270160256410594 (0x86D742C62CA08D4E9BA5CE4B7173A3E2)

Complete name : [Deadmau- RAWS] Клуб.Эйкен.OVA.2003.RUS.ENG.JAP.DVDRip-AVC.8.Bit.Ver.Deadmauvlad.Ep.01.mkv

Format : Matroska

Format version : Version 2

File size : 904 MiB

Duration : 29 min 9 s

Overall bit rate : 4 334 kb/s

Movie name : [Deadmau- RAWS] Eiken.Eikenbu.yori.Ai.wo.Komete.OVA.2003.RUS.ENG.JAP.DVDRip-AVC.8.Bit.Ver.Deadmauvlad

Encoded date : UTC 2020-06-17 08:34:02

Writing application : mkvmerge v7.8.0 ('River Man') 32bit built on Apr 3 2015 12:11:22

Writing library : libebml v1.3.1 + libmatroska v1.4.2



Video

ID : 1

Format : AVC

Format/Info : Advanced Video Codec

Format profile : [email protected]

Format settings : CABAC / 7 Ref Frames

Format settings, CABAC : Yes

Format settings, ReFrames : 7 frames

Codec ID : V_MPEG4/ISO/AVC

Duration : 29 min 9 s

Bit rate : 3 500 kb/s

Width : 960 pixels

Height : 720 pixels

Display aspect ratio : 4:3

Frame rate mode : Constant

Frame rate : 23.976 (24000/1001) FPS

Color space : YUV

Chroma subsampling : 4:2:0

Bit depth : 8 bits

Scan type : Progressive

Bits/(Pixel*Frame) : 0.211

Stream size : 712 MiB (79%)

Title : Encoder by Deadmauvlad

Writing library : x264 core 157 r2969 d4099dd

Encoding settings : cabac=1 / ref=7 / deblock=1:1:2 / analyse=0x3:0x113 / me=esa / subme=10 / psy=1 / psy_rd=1.25:0.25 / mixed_ref=0 / me_range=40 / chroma_me=1 / trellis=2 / 8x8dct=1 / cqm=0 / deadzone=21,11 / fast_pskip=1 / chroma_qp_offset=-4 / threads=18 / lookahead_threads=4 / sliced_threads=0 / nr=0 / decimate=1 / interlaced=0 / bluray_compat=0 / constrained_intra=0 / bframes=14 / b_pyramid=2 / b_adapt=2 / b_bias=0 / direct=1 / weightb=1 / open_gop=0 / weightp=2 / keyint=240 / keyint_min=24 / scenecut=40 / intra_refresh=0 / rc_lookahead=60 / rc=2pass / mbtree=1 / bitrate=3500 / ratetol=1.0 / qcomp=0.60 / qpmin=1 / qpmax=69 / qpstep=4 / cplxblur=20.0 / qblur=0.5 / ip_ratio=1.45 / aq=3:1.50

Language : English

Default : Yes

Forced : No

Color range : Limited

Color primaries : BT.709

Transfer characteristics : BT.709

Matrix coefficients : BT.709



Audio #1

ID : 2

Format : AC-3

Format/Info : Audio Coding 3

Commercial name : Dolby Digital

Codec ID : A_AC3

Duration : 29 min 9 s

Bit rate mode : Constant

Bit rate : 192 kb/s

Channel(s) : 2 channels

Channel layout : L R

Sampling rate : 48.0 kHz

Frame rate : 31.250 FPS (1536 SPF)

Bit depth : 16 bits

Compression mode : Lossy

Stream size : 40.0 MiB (4%)

Title : [Shiza-project] Aska, Hell, Tina

Language : Russian

Service kind : Complete Main

Default : No

Forced : No



Audio #2

ID : 3

Format : AC-3

Format/Info : Audio Coding 3

Commercial name : Dolby Digital

Codec ID : A_AC3

Duration : 29 min 9 s

Bit rate mode : Constant

Bit rate : 192 kb/s

Channel(s) : 2 channels

Channel layout : L R

Sampling rate : 48.0 kHz

Frame rate : 31.250 FPS (1536 SPF)

Bit depth : 16 bits

Compression mode : Lossy

Stream size : 40.0 MiB (4%)

Title : AniDub [Cuba77 & Трина Дубовицкая]

Language : Russian

Service kind : Complete Main

Default : No

Forced : No



Audio #3

ID : 4

Format : AC-3

Format/Info : Audio Coding 3

Commercial name : Dolby Digital

Codec ID : A_AC3

Duration : 29 min 9 s

Bit rate mode : Constant

Bit rate : 224 kb/s

Channel(s) : 2 channels

Channel layout : L R

Sampling rate : 48.0 kHz

Frame rate : 31.250 FPS (1536 SPF)

Bit depth : 16 bits

Compression mode : Lossy

Stream size : 46.7 MiB (5%)

Title : Любительский Одноголосый Закадровый

Language : Russian

Service kind : Complete Main

Default : No

Forced : No



Audio #4

ID : 5

Format : AC-3

Format/Info : Audio Coding 3

Commercial name : Dolby Digital

Codec ID : A_AC3

Duration : 29 min 9 s

Bit rate mode : Constant

Bit rate : 224 kb/s

Channel(s) : 2 channels

Channel layout : L R

Sampling rate : 48.0 kHz

Frame rate : 31.250 FPS (1536 SPF)

Bit depth : 16 bits

Compression mode : Lossy

Stream size : 46.7 MiB (5%)

Title : Оригинал

Language : Japanese

Service kind : Complete Main

Default : No

Forced : No



Text #1

ID : 6

Format : ASS

Codec ID : S_TEXT/ASS

Codec ID/Info : Advanced Sub Station Alpha

Compression mode : Lossless

Title : RUS SUB

Language : Russian

Default : No

Forced : No



Text #2

ID : 7

Format : ASS

Codec ID : S_TEXT/ASS

Codec ID/Info : Advanced Sub Station Alpha

Compression mode : Lossless

Title : ENG SUB

Language : English

Default : No

Forced : No



Скриншоты Резервные скриншоты



Релиз / Автор рипа: Deadmauvlad ^_^



Discussion

Comments 0

Post Your Comment

Torrent Files (Unavailable)

Please check back later to get a list of all files included in this torrent.

Alternative Torrents for 'Deadmau RAWS Eiken Eikenbu yori Ai wo Komete OVA RUS ENG JAP DVDRipAVC Bit Ver Deadmauvlad'.

There are no alternative torrents found.