The Half Of It 2020 X264 720p Esub NetFLix Dual Audio Hindi Arabic GOPI SAHI

Torrent Details

The Half Of It 2020 x264 720p Esub NetFLix Dual Audio Hindi Arabic GOPI SAHI
The Half Of It 2020 x264 720p Esub NetFLix Dual Audio Hindi Arabic GOPI SAHI

NAME
The Half Of It 2020 x264 720p Esub NetFLix Dual Audio Hindi Arabic GOPI SAHI.torrent
CATEGORY
Movies
INFOHASH
6a06f6f317ce16df4405b2d4e93a2ca51b7197bc
SIZE
823 MB in 2 files
ADDED
Uploaded on 17-06-2020 by our crawler pet called "Spidey".
SWARM
0 seeders & 0 peers
RATING
No votes yet.

Please login to vote for this torrent.


Description

https://www.gopisahi.life/







Format                         : Matroska



Format version                 : Version 4 / Version 2



File size                      : 823 MiB



Duration                       : 1 h 45 min



Overall bit rate               : 1 091 kb/s



Movie name                     : The Half Of It 2020 GOPI SAHI



Encoded date                   : UTC 2020-06-17 15:13:26





Video



ID                             : 1



Format                         : AVC



Format/Info                    : Advanced Video Codec



Format profile                 : [email protected]



Format settings, CABAC         : Yes



Format settings, RefFrames     : 5 frames



Codec ID                       : V_MPEG4/ISO/AVC



Duration                       : 1 h 45 min



Bit rate                       : 899 kb/s



Width                          : 1 280 pixels



Height                         : 534 pixels



Display aspect ratio           : 2.40:1



Frame rate mode                : Constant



Frame rate                     : 24.000 FPS



Color space                    : YUV



Chroma subsampling             : 4:2:0



Bit depth                      : 8 bits



Scan type                      : Progressive



Bits/(Pixel*Frame)             : 0.055



Stream size                    : 677 MiB (82%)



Title                          : GOPI SAHI



Writing library                : x264 core 157 r2935 545de2f





Audio #1



ID                             : 2



Format                         : AAC



Format/Info                    : Advanced Audio Codec



Format profile                 : LC



Codec ID                       : A_AAC



Duration                       : 1 h 45 min



Bit rate                       : 96.0 kb/s



Channel(s)                     : 2 channels



Channel positions              : Front: L R



Sampling rate                  : 48.0 kHz



Frame rate                     : 46.875 FPS (1024 SPF)



Compression mode               : Lossy



Delay relative to video        : -21 ms



Stream size                    : 71.8 MiB (9%)



Title                          : GOPI SAHI



Language                       : Hindi



Default                        : Yes



Forced                         : No





Audio #2



ID                             : 3



Format                         : AAC



Format/Info                    : Advanced Audio Codec



Format profile                 : LC



Codec ID                       : A_AAC



Duration                       : 1 h 45 min



Bit rate                       : 96.0 kb/s



Channel(s)                     : 2 channels



Channel positions              : Front: L R



Sampling rate                  : 48.0 kHz



Frame rate                     : 46.875 FPS (1024 SPF)



Compression mode               : Lossy



Delay relative to video        : -21 ms



Stream size                    : 71.7 MiB (9%)



Title                          : GOPI SAHI



Language                       : English



Default                        : No



Forced                         : No





Text



ID                             : 4



Format                         : UTF-8



Codec ID                       : S_TEXT/UTF8



Codec ID/Info                  : UTF-8 Plain Text



Duration                       : 1 h 42 min



Bit rate                       : 62 b/s



Count of elements              : 1534



Stream size                    : 47.0 KiB (0%)



Title                          : GOPI SAHI



Language                       : English



Default                        : Yes



Forced                         : No











Discussion

Comments 0

Post Your Comment

Files in this torrent

FILENAMESIZE
Encooded And Uploded From.txt50 B
The Half Of It 2020 GOPI SAHI.mkv823.1 MB

Alternative Torrents for 'Half Of It Esub NetFLix Dual Audio Hindi Arabic GOPI SAHI'.

TORRENT NAMEADDEDSIZESEEDSPEERSHEALTH
6/17/2020823 MB00