Bloodshot (2020) BluRay 1080p 10bit HEVC [Hindi Org BD 5 1 - English AAC 5.1] X265 ESub -RONIN

Torrent Details

Bloodshot (2020) BluRay 1080p 10bit HEVC [Hindi Org BD 5 1 - English AAC 5.1] x265 ESub -RONIN

NAME
Bloodshot (2020) BluRay 1080p 10bit HEVC [Hindi Org BD 5 1 - English AAC 5.1] x265 ESub -RONIN.torrent
CATEGORY
Movies
INFOHASH
93a96576b17cb2dd0ba3cb5aee6b17304bcc092a
SIZE
2.7 GB in 1 file
ADDED
Uploaded on 17-06-2020 by our crawler pet called "Spidey".
SWARM
0 seeders & 0 peers
RATING
No votes yet.

Please login to vote for this torrent.


Description









Bloodshot (2020) BluRay 1080p 10bit HEVC [Hindi Org BD 5.1 - English AAC 5.1] x265 ESub -RONIN



[code]Source :- Bloodshot 2020 BluRay 1080p DTS-HD 5.1 AVC REMUX-TROUT (21.4GB)

Special Thanks To Hammer For Hindi BD Audio[/code]



[code]Media Info:-

GGeneral

Unique ID                                : 17301531393148662125280997482993319413 (0xD04275B76D2260C14B14FB53E2C7DF5)

Complete name                            : Bloodshot (2020) BluRay 1080p 10bit HEVC [Hindi Org BD 5.1 - English AAC 5.1] x265 ESub -RONIN.mkv

Format                                   : Matroska

Format version                           : Version 4

File size                                : 2.68 GiB

Duration                                 : 1 h 49 min

Overall bit rate                         : 3 505 kb/s

Movie name                               : Bloodshot (2020) BluRay 1080p 10bit HEVC [Hindi Org BD 5.1 - English AAC 5.1] x265 ESub -RONIN

Encoded date                             : UTC 2020-06-17 16:00:12

Writing application                      : mkvmerge v43.0.0 ('The Quartermaster') 64-bit

Writing library                          : libebml v1.3.10 + libmatroska v1.5.2

Cover                                    : Yes

Attachments                              : cover.jpg



Video

ID                                       : 1

Format                                   : HEVC

Format/Info                              : High Efficiency Video Coding

Format profile                           : Main [email protected]@High

Codec ID                                 : V_MPEGH/ISO/HEVC

Duration                                 : 1 h 49 min

Bit rate                                 : 2 635 kb/s

Width                                    : 1 920 pixels

Height                                   : 800 pixels

Display aspect ratio                     : 2.40:1

Frame rate mode                          : Constant

Frame rate                               : 23.976 (24000/1001) FPS

Color space                              : YUV

Chroma subsampling                       : 4:2:0

Bit depth                                : 10 bits

Bits/(Pixel*Frame)                       : 0.072

Stream size                              : 2.01 GiB (75%)

Title                                    : Bloodshot (2020) BluRay 1080p 10bit HEVC [Hindi Org BD 5.1 - English AAC 5.1] x265 ESub -RONIN

Writing library                          : x265 3.3+2-gbe2d82093:[Windows][GCC 9.2.0][64 bit] 10bit

Encoding settings                        : cpuid=1111039 / frame-threads=5 / numa-pools=16 / wpp / no-pmode / no-pme / no-psnr / no-ssim / log-level=2 / input-csp=1 / input-res=1920x800 / interlace=0 / total-frames=157272 / level-idc=40 / high-tier=1 / uhd-bd=0 / ref=3 / no-allow-non-conformance / repeat-headers / annexb / aud / hrd / info / hash=0 / no-temporal-layers / no-open-gop / min-keyint=24 / keyint=240 / gop-lookahead=0 / bframes=4 / b-adapt=2 / b-pyramid / bframe-bias=0 / rc-lookahead=25 / lookahead-slices=4 / scenecut=40 / hist-scenecut=0 / radl=0 / no-splice / no-intra-refresh / ctu=64 / min-cu-size=8 / no-rect / no-amp / max-tu-size=32 / tu-inter-depth=1 / tu-intra-depth=1 / limit-tu=0 / rdoq-level=2 / dynamic-rd=0.00 / no-ssim-rd / signhide / no-tskip / nr-intra=0 / nr-inter=0 / no-constrained-intra / no-strong-intra-smoothing / max-merge=3 / limit-refs=1 / limit-modes / me=1 / subme=3 / merange=35 / temporal-mvp / no-frame-dup / no-hme / weightp / weightb / no-analyze-src-pics / deblock=-3:-3 / no-sao / no-sao-non-deblock / rd=4 / selective-sao=0 / early-skip / rskip / no-fast-intra / no-tskip-fast / no-cu-lossless / b-intra / no-splitrd-skip / rdpenalty=0 / psy-rd=2.00 / psy-rdoq=0.00 / no-rd-refine / no-lossless / cbqpoffs=0 / crqpoffs=0 / rc=crf / crf=22.0 / qcomp=0.60 / qpstep=4 / stats-write=0 / stats-read=0 / vbv-maxrate=20000 / vbv-bufsize=19500 / vbv-init=0.9 / crf-max=0.0 / crf-min=0.0 / ipratio=1.40 / pbratio=1.30 / aq-mode=3 / aq-strength=1.00 / cutree / zone-count=0 / no-strict-cbr / qg-size=32 / no-rc-grain / qpmax=69 / qpmin=0 / no-const-vbv / sar=0 / overscan=0 / videoformat=5 / range=0 / colorprim=2 / transfer=2 / colormatrix=2 / chromaloc=0 / display-window=0 / cll=0,0 / min-luma=0 / max-luma=1023 / log2-max-poc-lsb=8 / vui-timing-info / vui-hrd-info / slices=1 / no-opt-qp-pps / no-opt-ref-list-length-pps / no-multi-pass-opt-rps / scenecut-bias=0.00 / hist-threshold=0.01 / no-opt-cu-delta-qp / no-aq-motion / no-hdr10 / no-hdr10-opt / no-dhdr10-opt / no-idr-recovery-sei / analysis-reuse-level=0 / analysis-save-reuse-level=0 / analysis-load-reuse-level=0 / scale-factor=0 / refine-intra=0 / refine-inter=0 / refine-mv=1 / refine-ctu-distortion=0 / no-limit-sao / ctu-info=0 / no-lowpass-dct / refine-analysis-type=0 / copy-pic=1 / max-ausize-factor=1.0 / no-dynamic-refine / no-single-sei / no-hevc-aq / no-svt / no-field / qp-adaptation-range=1.00 / no-scenecut-aware-qpconformance-window-offsets / right=0 / bottom=0

Default                                  : Yes

Forced                                   : No

Color range                              : Limited



Audio #1

ID                                       : 2

Format                                   : AC-3

Format/Info                              : Audio Coding 3

Commercial name                          : Dolby Digital

Codec ID                                 : A_AC3

Duration                                 : 1 h 49 min

Bit rate mode                            : Constant

Bit rate                                 : 640 kb/s

Channel(s)                               : 6 channels

Channel layout                           : L R C LFE Ls Rs

Sampling rate                            : 48.0 kHz

Frame rate                               : 31.250 FPS (1536 SPF)

Bit depth                                : 16 bits

Compression mode                         : Lossy

Stream size                              : 500 MiB (18%)

Title                                    : Org BD 5.1 -RONIN

Language                                 : Hindi

Service kind                             : Complete Main

Default                                  : Yes

Forced                                   : No



Audio #2

ID                                       : 3

Format                                   : AAC LC SBR

Format/Info                              : Advanced Audio Codec Low Complexity with Spectral Band Replication

Commercial name                          : HE-AAC

Format settings                          : Explicit

Codec ID                                 : A_AAC-2

Duration                                 : 1 h 49 min

Bit rate                                 : 213 kb/s

Channel(s)                               : 6 channels

Channel layout                           : C L R Ls Rs LFE

Sampling rate                            : 48.0 kHz

Frame rate                               : 23.438 FPS (2048 SPF)

Compression mode                         : Lossy

Delay relative to video                  : 40 ms

Stream size                              : 166 MiB (6%)

Title                                    : AAC 5.1 -RONIN

Language                                 : English

Default                                  : No

Forced                                   : No



Text

ID                                       : 4

Format                                   : PGS

Muxing mode                              : zlib

Codec ID                                 : S_HDMV/PGS

Codec ID/Info                            : Picture based subtitle format used on BDs/HD-DVDs

Duration                                 : 1 h 41 min

Bit rate                                 : 28.0 kb/s

Count of elements                        : 2030

Stream size                              : 20.3 MiB (1%)

Title                                    : English

Language                                 : English

Default                                  : No

Forced                                   : No



Menu

00:00:00.000                             : en:Chapter 01

00:07:06.384                             : en:Chapter 02

00:13:56.210                             : en:Chapter 03

00:20:36.860                             : en:Chapter 04

00:25:05.545                             : en:Chapter 05

00:32:11.179                             : en:Chapter 06

00:41:41.499                             : en:Chapter 07

00:46:39.379                             : en:Chapter 08

00:53:35.629                             : en:Chapter 09

01:02:28.494                             : en:Chapter 10

01:08:59.343                             : en:Chapter 11

01:12:42.524                             : en:Chapter 12

01:19:15.917                             : en:Chapter 13

01:26:49.996                             : en:Chapter 14

01:31:07.378                             : en:Chapter 15

01:38:31.530                             : en:Chapter 16

[/code]





























Enjoy The Quality by RONIN



Discussion

Comments 0

Post Your Comment

Files in this torrent

FILENAMESIZE
Bloodshot (2020) BluRay 1080p 10bit HEVC [Hindi Org BD 5.1 - English AAC 5.1] x265 ESub -RONIN.mkv2.7 GB

Alternative Torrents for 'Bloodshot BluRay bit HEVC Hindi Org BD English AAC . ESub RONIN'.

There are no alternative torrents found.