Bloodshot (2020) BluRay - 720p - [Hindi (DD 5.1 - 640Kbps) + Eng] - 1.3GB - ESub - TamilMV

Torrent Details


Bloodshot (2020) BluRay - 720p - [Hindi (DD 5.1 - 640Kbps) + Eng] - 1.3GB - ESub - TamilMV

NAME
Bloodshot (2020) BluRay - 720p - [Hindi (DD 5.1 - 640Kbps) + Eng] - 1.3GB - ESub - TamilMV.torrent
CATEGORY
Movies
INFOHASH
ecc98b2ec5b77532149b634211238f14b69d4426
SIZE
1.3 GB in 2 files
ADDED
Uploaded on 17-06-2020 by our crawler pet called "Spidey".
SWARM
0 seeders & 0 peers
RATING
No votes yet.

Please login to vote for this torrent.


Description

Bloodshot (2020) BluRay - 720p - Original Audio [Hindi (DD5.1 - 640Kbps) + Eng] - 1.3GB - ESub - TamilMV







SCREENSHOTS :













Quote:Media Info :



Video

ID                          : 1

Format                      : AVC

Format/Info                 : Advanced Video Codec

Format profile              : [email protected]

Format settings             : CABAC / 4 Ref Frames

Format settings, CABAC      : Yes

Format settings, Reference  : 4 frames

Codec ID                    : V_MPEG4/ISO/AVC

Duration                    : 1 h 49 min

Bit rate                    : 919 kb/s

Width                       : 1 280 pixels

Height                      : 544 pixels

Display aspect ratio        : 2.40:1

Frame rate mode             : Variable

Frame rate                  : 23.976 FPS

Color space                 : YUV

Chroma subsampling          : 4:2:0

Bit depth                   : 8 bits

Scan type                   : Progressive

Bits/(Pixel*Frame)          : 0.055

Stream size                 : 718 MiB (55%)

Title                       : www.1TamilMV.xyz

Writing library             : x264 core 157

Language                    : English

Default                     : Yes

Forced                      : No



Audio #1

ID                          : 2

Format                      : AC-3

Format/Info                 : Audio Coding 3

Commercial name             : Dolby Digital

Codec ID                    : A_AC3

Duration                    : 1 h 49 min

Bit rate mode               : Constant

Bit rate                    : 640 kb/s

Channel(s)                  : 6 channels

Channel layout              : L R C LFE Ls Rs

Sampling rate               : 48.0 kHz

Frame rate                  : 31.250 FPS (1536 SPF)

Compression mode            : Lossy

Stream size                 : 500 MiB (39%)

Title                       : www.1TamilMV.xyz - [Hindi DD5.1 - 640Kbps]

Language                    : Hindi

Service kind                : Complete Main

Default                     : Yes

Forced                      : No



Audio #2

ID                          : 3

Format                      : AAC LC

Format/Info                 : Advanced Audio Codec Low Complexity

Codec ID                    : A_AAC-2

Duration                    : 1 h 49 min

Bit rate                    : 96.0 kb/s

Channel(s)                  : 2 channels

Channel layout              : L R

Sampling rate               : 48.0 kHz

Frame rate                  : 46.875 FPS (1024 SPF)

Compression mode            : Lossy

Stream size                 : 75.4 MiB (6%)

Title                       : www.1TamilMV.xyz

Language                    : English

Default                     : No

Forced                      : No



Text

ID                          : 4

Format                      : UTF-8

Codec ID                    : S_TEXT/UTF8

Codec ID/Info               : UTF-8 Plain Text

Duration                    : 1 h 41 min

Bit rate                    : 46 b/s

Count of elements           : 1139

Stream size                 : 34.6 KiB (0%)

Title                       : www.1TamilMV.xyz

Language                    : English

Default                     : Yes

Forced                      : No

Discussion

Comments 0

Post Your Comment

Files in this torrent

FILENAMESIZE
A TamilMV Release.txt283 B
Bloodshot (2020) BluRay - 720p - [Hindi (DD5.1 - 640Kbps) + Eng] - 1.3GB - ESub - TamilMV.mkv1.3 GB

Alternative Torrents for 'Bloodshot BluRay Hindi DD Eng ESub TamilMV'.

TORRENT NAMEADDEDSIZESEEDSPEERSHEALTH
8/3/2020883 MB56813798
8/3/2020699 MB36732449
7/31/20201.1 GB1363335
7/31/20201.1 GB1189276
8/2/2020920 MB89893
7/31/20201.9 GB822304
7/24/2020897 MB76262
7/30/20201.8 GB68992
8/7/20201.1 GB687732
7/30/20201009 MB678183
8/7/20202.3 GB623544
7/30/20202.2 GB56598
8/2/20203.8 GB529328
7/30/20201.7 GB513185
8/7/2020875 MB475389