2 Minutes Of Fame (2020) WEB-DL 1080p

Torrent Details

2 Minutes Of Fame (2020) WEB-DL 1080p
2 Minutes Of Fame (2020) WEB-DL 1080p

NAME
2 Minutes Of Fame (2020) WEB-DL 1080p.torrent
CATEGORY
Movies
INFOHASH
c8ff141525e97486000655ca0acffc8dcd2379ee
SIZE
3.4 GB in 1 file
ADDED
Uploaded on 17-06-2020 by our crawler pet called "Spidey".
SWARM
0 seeders & 0 peers
RATING
No votes yet.

Please login to vote for this torrent.


Description

Информация о фильме

Название: Две минуты славы

Оригинальное название: 2 Minutes of Fame

Год выхода: 2020

Жанр: Комедия





Режиссер: Лесли Смолл





В ролях: Энди Алло, Кеке Палмер, Деон Коул, Валери М. Ортис, РонРико Ли, Кэтт Уильямс, Джей Фэро, Кимри Льюис-Дэвис, Пол Элиа, Джим Уайз



О фильме:

Главный герой фильма "Две минуты славы" талантливый комикс-постановщик, чье случайное видео становится сенсацией в интернете. Теперь он решает переехать в Лос-Анджелес, чтобы стать актером и сниматься в кино. Но как отреагируют его родные и сможет ли он ? Мужчине придется выложиться на все сто, чтобы доказать свое мастерство перед публикой.











Страна: США

Продолжительность: 01:37:03

Перевод: Субтитры





Файл

Кодек: x.264

Качество: WEB-DL 1080p

Видео: AVC, 1920x796 (2.40:1), 23.976 fps, 4 557 kb/s

Аудио: AC-3, 48.0 kHz, 6 ch, 384 kb/s | ENG

Субтитры: Русские, английские



Перевод субтитров: Юлия Торнтон



Рекламы нет | Сэмпл



MIGeneral

Unique ID : 187028852180683213618615063086893825184 (0x8CB4725A23A334DB83B1A627664AFCA0)

Complete name : 2.Minutes.Of.Fame.(2020).WEB-DL.1080p.mkv

Format : Matroska

Format version : Version 4

File size : 3.35 GiB

Duration : 1 h 37 min

Overall bit rate : 4 943 kb/s

Encoded date : UTC 2020-06-17 17:35:07

Writing application : mkvmerge v8.3.0 ('Over the Horizon') 64bit

Writing library : libebml v1.3.1 + libmatroska v1.4.2



Video

ID : 1

Format : AVC

Format/Info : Advanced Video Codec

Format profile : [email protected]

Format settings : CABAC / 5 Ref Frames

Format settings, CABAC : Yes

Format settings, ReFrames : 5 frames

Codec ID : V_MPEG4/ISO/AVC

Duration : 1 h 37 min

Bit rate : 4 557 kb/s

Width : 1 920 pixels

Height : 796 pixels

Display aspect ratio : 2.40:1

Frame rate mode : Constant

Frame rate : 23.976 (23976/1000) FPS

Color space : YUV

Chroma subsampling : 4:2:0

Bit depth : 8 bits

Scan type : Progressive

Bits/(Pixel*Frame) : 0.124

Stream size : 3.09 GiB (92%)

Language : English

Default : Yes

Forced : No

Color range : Limited

Color primaries : BT.709

Transfer characteristics : BT.709

Matrix coefficients : BT.709



Audio

ID : 2

Format : AC-3

Format/Info : Audio Coding 3

Commercial name : Dolby Digital

Codec ID : A_AC3

Duration : 1 h 37 min

Bit rate mode : Constant

Bit rate : 384 kb/s

Channel(s) : 6 channels

Channel layout : L R C LFE Ls Rs

Sampling rate : 48.0 kHz

Frame rate : 31.250 FPS (1536 SPF)

Bit depth : 16 bits

Compression mode : Lossy

Delay relative to video : -42 ms

Stream size : 267 MiB (8%)

Language : English

Service kind : Complete Main

Default : Yes

Forced : No



Text #1

ID : 3

Format : UTF-8

Codec ID : S_TEXT/UTF8

Codec ID/Info : UTF-8 Plain Text

Duration : 1 h 35 min

Bit rate : 153 b/s

Count of elements : 1745

Stream size : 108 KiB (0%)

Language : Russian

Default : Yes

Forced : Yes



Text #2

ID : 4

Format : UTF-8

Codec ID : S_TEXT/UTF8

Codec ID/Info : UTF-8 Plain Text

Duration : 1 h 31 min

Bit rate : 110 b/s

Count of elements : 2283

Stream size : 74.0 KiB (0%)

Language : English

Default : No

Forced : No



Menu

00:00:00.000 : en:1

00:04:27.000 : en:2

00:13:00.000 : en:3

00:20:47.000 : en:4

00:30:20.000 : en:5

00:38:47.000 : en:6

00:49:17.000 : en:7

00:57:08.000 : en:8

01:09:07.000 : en:9

01:16:25.000 : en:10

01:24:08.000 : en:11

01:32:49.000 : en:12Скриншоты

Discussion

Comments 0

Post Your Comment

Files in this torrent

FILENAMESIZE
2.Minutes.Of.Fame.(2020).WEB-DL.1080p.mkv3.4 GB

Alternative Torrents for 'Minutes Of Fame'.

TORRENT NAMEADDEDSIZESEEDSPEERSHEALTH
7/7/20201.6 GB00
7/7/20202.2 GB00
6/29/2020847 MB00
6/26/20201.5 GB00
6/26/20206.9 GB00
6/25/202010.3 GB00
6/25/20208.3 GB00
6/25/20204.8 GB00
6/25/20204.8 GB00
6/17/20201.4 GB00
6/17/20201.5 GB00
6/17/20203.4 GB00
6/17/20201.3 GB00
6/17/20203.4 GB00
6/17/20201.8 GB00