Brazzers 13-06-2020 Kennedy Leigh Redux 21 Hump Street Remastered MP4 1080P-Azhdar

Torrent Details


Brazzers 13-06-2020 Kennedy Leigh Redux 21 Hump Street Remastered MP4 1080P-Azhdar

NAME
Brazzers 13-06-2020 Kennedy Leigh Redux 21 Hump Street Remastered MP4 1080P-Azhdar.torrent
CATEGORY
Adult
INFOHASH
84a1ec4aadcd33d238c8fa3dd10217f1c030b131
SIZE
1.4 GB in 3 files
ADDED
Uploaded on 17-06-2020 by our crawler pet called "Spidey".
SWARM
0 seeders & 2 peers
RATING
No votes yet.

Please login to vote for this torrent.


Description

General
Format : MPEG-4
Format profile : Base Media
Codec ID : isom (isom/iso2/avc1/mp41)
File size : 1.36 GiB
Duration : 31 min 31 s
Overall bit rate : 6 169 kb/s
Writing application : Lavf58.42.101

Video
ID : 1
Format : AVC
Format/Info : Advanced Video Codec
Format profile : [email protected]
Format settings : CABAC / 5 Ref Frames
Format settings, CABAC : Yes
Format settings, Reference : 5 frames
Codec ID : avc1
Codec ID/Info : Advanced Video Coding
Duration : 31 min 31 s
Bit rate : 6 043 kb/s
Width : 1 920 pixels
Height : 1 080 pixels
Display aspect ratio : 16:9
Frame rate mode : Constant
Frame rate : 23.976 (24000/1001) FPS
Color space : YUV
Chroma subsampling : 4:2:0
Bit depth : 8 bits
Scan type : Progressive
Bits/(Pixel*Frame) : 0.122
Stream size : 1.33 GiB (98%)
Writing library : x264 core 159
Codec configuration box : avcC

Audio
ID : 2
Format : AAC LC
Format/Info : Advanced Audio Codec Low Complexity
Codec ID : mp4a-40-2
Duration : 31 min 31 s
Duration_LastFrame : -11 ms
Bit rate mode : Constant
Bit rate : 121 kb/s
Channel(s) : 2 channels
Channel layout : L R
Sampling rate : 48.0 kHz
Frame rate : 46.875 FPS (1024 SPF)
Compression mode : Lossy
Stream size : 27.3 MiB (2%)
Default : Yes
Alternate group : 1

Discussion

Comments 0

Post Your Comment

Files in this torrent

FILENAMESIZE
AZHDAR.nfo3.6 KB
Brazzers.13.06.2020.Kennedy.Leigh.Redux.21.Hump.Street.Remastered.MP4.1080P-Azhdar.mp41.4 GB
Brazzers.13.06.2020.Kennedy.Leigh.Redux.21.Hump.Street.Remastered.MP4.1080P-Azhdar.mp4.jpg275.6 KB

Alternative Torrents for 'Brazzers Kennedy Leigh Redux Hump Street Remastered Azhdar'.

TORRENT NAMEADDEDSIZESEEDSPEERSHEALTH
6/17/20201.4 GB02