Bloodshot 2020 BluRay 1080p Hindi English BD 5 1 X264 ESubs - MkvCinemas [Telly]

Torrent Details

Bloodshot 2020 BluRay 1080p Hindi English BD 5 1 x264 ESubs - mkvCinemas [Telly]
Bloodshot 2020 BluRay 1080p Hindi English BD 5 1 x264 ESubs - mkvCinemas [Telly]

NAME
Bloodshot 2020 BluRay 1080p Hindi English BD 5 1 x264 ESubs - mkvCinemas [Telly].torrent
CATEGORY
Movies
INFOHASH
20350cb4e386ece523846c564b4c2f45ea31f125
SIZE
3.7 GB in 1 file
ADDED
Uploaded on 18-06-2020 by our crawler pet called "Spidey".
SWARM
0 seeders & 0 peers
RATING
No votes yet.

Please login to vote for this torrent.


Description

कोरोना से बचाव:

घर पर फिल्में देखें। घर में रहें, सुरक्षित रहें। सरकार द्वारा दिए गए सभी दिशानिर्देशों और सावधानियों का जरूर पालन करें।



Fight Corona:

Watch movies at home. Stay Home, Stay Safe. Must Follow All the guidelines and precautions advised by the Government.















********************************

Hindi Audio: UHD EUR (Thanks)

********************************

Bloodshot 2020 BluRay 1080p Hindi English BD 5.1 x264 ESubs - mkvCinemas [Telly]



********************************



Mediainfo:-

Format                      : Matroska

Format version              : Version 2

File size                   : 3.67 GiB

Duration                    : 1h 49mn

Overall bit rate mode       : Variable

Overall bit rate            : 4 807 Kbps





Video

ID                          : 1

Format                      : AVC

Format/Info                 : Advanced Video Codec

Format profile              : [email protected]

Format settings, CABAC      : Yes

Format settings, ReFrames   : 4 frames

Muxing mode                 : Header stripping

Codec ID                    : V_MPEG4/ISO/AVC

Duration                    : 1h 49mn

Bit rate mode               : Variable

Bit rate                    : 3 500 Kbps

Maximum bit rate            : 62.5 Mbps

Width                       : 1 920 pixels

Height                      : 800 pixels

Display aspect ratio        : 2.40:1

Frame rate mode             : Constant

Frame rate                  : 23.976 fps

Color space                 : YUV





Audio #1

ID                          : 2

Format                      : AC-3

Format/Info                 : Audio Coding 3

Mode extension              : CM (complete main)

Format settings, Endianness : Big

Muxing mode                 : Header stripping

Codec ID                    : A_AC3

Duration                    : 1h 49mn

Bit rate mode               : Constant

Bit rate                    : 640 Kbps

Channel(s)                  : 6 channels

Channel positions           : Front: L C R, Side: L R, LFE

Sampling rate               : 48.0 KHz

Bit depth                   : 16 bits

Compression mode            : Lossy

Stream size                 : 500 MiB (13%)

Title                       : mkvCinemas

Language                    : Hindi

Default                     : Yes

Forced                      : No



Audio #2

ID                          : 3

Format                      : AC-3

Format/Info                 : Audio Coding 3

Mode extension              : CM (complete main)

Format settings, Endianness : Big

Muxing mode                 : Header stripping

Codec ID                    : A_AC3

Duration                    : 1h 49mn

Bit rate mode               : Constant

Bit rate                    : 640 Kbps

Channel(s)                  : 6 channels

Channel positions           : Front: L C R, Side: L R, LFE

Sampling rate               : 48.0 KHz

Bit depth                   : 16 bits

Compression mode            : Lossy

Stream size                 : 500 MiB (13%)

Title                       : mkvCinemas

Language                    : English

Default                     : No

Forced                      : No



Text #1

ID                          : 4

Format                      : PGS

Muxing mode                 : zlib

Codec ID                    : S_HDMV/PGS

Codec ID/Info               : The same subtitle format used on BDs/HD-DVDs

Title                       : English-SDH-PGS

Language                    : English

Default                     : Yes

Forced                      : No



Text #2

ID                          : 5

Format                      : PGS

Muxing mode                 : zlib

Codec ID                    : S_HDMV/PGS

Codec ID/Info               : The same subtitle format used on BDs/HD-DVDs

Title                       : English-PGS

Language                    : English

Default                     : No

Forced                      : No



Text #3

ID                          : 6

Format                      : UTF-8

Codec ID                    : S_TEXT/UTF8

Codec ID/Info               : UTF-8 Plain Text

Title                       : English-SRT

Language                    : English

Default                     : No

Forced                      : No



Menu

00:00:00.000                : en:Chapter 01

00:07:06.383                : en:Chapter 02

00:13:56.209                : en:Chapter 03

00:20:36.859                : en:Chapter 04

00:25:05.544                : en:Chapter 05

00:32:11.177                : en:Chapter 06

00:41:41.496                : en:Chapter 07

00:46:39.377                : en:Chapter 08

00:53:35.625                : en:Chapter 09

01:02:28.491                : en:Chapter 10

01:08:59.339                : en:Chapter 11

01:12:42.520                : en:Chapter 12

01:19:15.913                : en:Chapter 13

01:26:49.990                : en:Chapter 14

01:31:07.373                : en:Chapter 15

01:38:31.525                : en:Chapter 16

01:44:11.238                : en:Chapter 17







********************************



We don't add Watermark or Audio Tags.

Wherever you Share our Stuffs, Give Proper Credit to "mkvCinemas @Team Telly"

We Keep All Torrents. In case of re-seed, please pm.



********************************

















********************************







********************************

Discussion

Comments 0

Post Your Comment

Files in this torrent

FILENAMESIZE
Bloodshot 2020 BluRay 1080p Hindi English BD 5.1 x264 ESubs - mkvCinemas [Telly].mkv3.7 GB

Alternative Torrents for 'Bloodshot BluRay Hindi English BD ESubs mkvCinemas Telly'.

TORRENT NAMEADDEDSIZESEEDSPEERSHEALTH
6/18/20203.7 GB00