Bloodshot 2020 X264 720p Esub BluRay Dual Audio English Hindi GOPI SAHI

Torrent Details

Bloodshot 2020 x264 720p Esub BluRay Dual Audio English Hindi GOPI SAHI
Bloodshot 2020 x264 720p Esub BluRay Dual Audio English Hindi GOPI SAHI

NAME
Bloodshot 2020 x264 720p Esub BluRay Dual Audio English Hindi GOPI SAHI.torrent
CATEGORY
Movies
INFOHASH
4943aa1d8e0368fb1d3cf35cb953c4739a76ddd1
SIZE
871 MB in 2 files
ADDED
Uploaded on 18-06-2020 by our crawler pet called "Spidey".
SWARM
0 seeders & 0 peers
RATING
No votes yet.

Please login to vote for this torrent.


Description

https://www.gopisahi.life/



Format : Matroska
Format version : Version 4
File size : 871 MiB
Duration : 1 h 49 min
Overall bit rate : 1 114 kb/s
Movie name : Bloodshot 2020 GOPI SAHI
Encoded date : UTC 2020-06-18 01:54:52


Video
ID : 1
Format : AVC
Format/Info : Advanced Video Codec
Format profile : [email protected]
Format settings : CABAC / 5 Ref Frames
Format settings, CABAC : Yes
Format settings, Reference fra : 5 frames
Codec ID : V_MPEG4/ISO/AVC
Duration : 1 h 49 min
Bit rate : 899 kb/s
Width : 1 280 pixels
Height : 534 pixels
Display aspect ratio : 2.40:1
Frame rate mode : Constant
Frame rate : 23.976 (24000/1001) FPS
Color space : YUV
Chroma subsampling : 4:2:0
Bit depth : 8 bits
Scan type : Progressive
Bits/(Pixel*Frame) : 0.055
Stream size : 703 MiB (81%)
Title : GOPI SAHI
Writing library : x264 core 157 r2935 545de2f


Audio #1
ID : 2
Format : AAC LC
Format/Info : Advanced Audio Codec Low Complexity
Codec ID : A_AAC-2
Duration : 1 h 49 min
Bit rate : 96.0 kb/s
Channel(s) : 2 channels
Channel layout : L R
Sampling rate : 48.0 kHz
Frame rate : 46.875 FPS (1024 SPF)
Compression mode : Lossy
Delay relative to video : -21 ms
Stream size : 75.4 MiB (9%)
Title : GOPI SAHI
Language : Hindi
Default : Yes
Forced : No

Audio #2
ID : 3
Format : AAC LC
Format/Info : Advanced Audio Codec Low Complexity
Codec ID : A_AAC-2
Duration : 1 h 49 min
Bit rate : 96.0 kb/s
Channel(s) : 2 channels
Channel layout : L R
Sampling rate : 48.0 kHz
Frame rate : 46.875 FPS (1024 SPF)
Compression mode : Lossy
Delay relative to video : -21 ms
Stream size : 75.4 MiB (9%)
Title : GOPI SAHI
Language : English
Default : No
Forced : No

Text
ID : 4
Format : PGS
Muxing mode : zlib
Codec ID : S_HDMV/PGS
Codec ID/Info : Picture based subtitle format used on BDs/HD-DVDs
Duration : 1 h 47 min
Bit rate : 36.0 kb/s
Count of elements : 2986
Stream size : 27.7 MiB (3%)
Title : GOPI SAHI
Language : English
Default : Yes
Forced : No





Discussion

Comments 0

Post Your Comment

Files in this torrent

FILENAMESIZE
Bloodshot 2020 GOPI SAHI.mkv871.2 MB
Encooded And Uploded From.txt50 B

Alternative Torrents for 'Bloodshot Esub BluRay Dual Audio English Hindi GOPI SAHI'.

TORRENT NAMEADDEDSIZESEEDSPEERSHEALTH
6/18/2020871 MB00