The King Of Staten Island 2020 WEB-DL 720p

Torrent Details

The King Of Staten Island 2020 WEB-DL 720p
The King Of Staten Island 2020 WEB-DL 720p

NAME
The King Of Staten Island 2020 WEB-DL 720p.torrent
CATEGORY
Movies
INFOHASH
93f982dc1b7ee4071d6dc3ee9fc9522955912e39
SIZE
4 GB in 1 file
ADDED
Uploaded on 18-06-2020 by our crawler pet called "Spidey".
SWARM
0 seeders & 0 peers
RATING
No votes yet.

Please login to vote for this torrent.


Description

Информация о фильме

Название: Король Стейтен-Айленда

Оригинальное название: The King of Staten Island

Год выхода: 2020

Жанр: драма, комедия

Режиссер: Джадд Апатоу

В ролях: Пит Дэвидсон, Мариса Томей, Билл Бёрр, Бел Паули, Мод Апатоу, Стив Бушеми, Рики Велес, Мойзес Ариас, Лу Уилсон, Карли Аквилино



О фильме:

24-летний инфантил по имени Скотт живёт с мамой и младшей сестрой в нью-йоркском районе Стейтен-Айленд. С самого детства парень не может смириться со смертью отца-пожарного и теперь всё время проводит за курением травки и набиванием друзьям кривых татуировок. Когда сестра уезжает в колледж, а его мама впервые после смерти мужа начинает встречаться с мужчиной, тоже пожарным, Скотт решает, что такие перемены в жизни ему не нужны, и теперь он будет пытаться расстроить мамины отношения.

ПРИСУТСТВУЕТ НЕНОРМАТИВНАЯ ЛЕКСИКА







Страна: США

Студия: Apatow Productions, Perfect World (Beijing) Pictures Co., Universal Pictures

Продолжительность: 02:17:13

Перевод: Профессиональный многоголосый, закадровый [HDRezka Studio]

Реклама: отсутствует



Файл

Кодек: H.264

Качество: WEB-DL 720p | HDRezka Studio

Видео: AVC, 1280x720 (16:9), 23.976 fps ~ 3380 Kbps

Звук:

AC3, 48 KHz, 6 ch ~ 448 Kb/s (русский)

E-AC3, 48 KHz, 6 ch ~256 Kb/s (английский)

Субтитры: английские



MI:

General

Unique ID : 197802800086203239347283522893071294341 (0x94CF6EFEE669ABBFBC2FD56106209F85)

Complete name : J:wotThe.King.Of.Staten.Island.2020.WEB-DL.720p.mkv

Format : Matroska

Format version : Version 4 / Version 2

File size : 4.00 GiB

Duration : 2h 17mn

Overall bit rate mode : Variable

Overall bit rate : 4 170 Kbps

Encoded date : UTC 2020-06-18 07:55:24

Writing application : mkvmerge v7.7.0 ('Six Voices') 32bit built on Feb 28 2015 23:23:00

Writing library : libebml v1.3.1 + libmatroska v1.4.2

_STATISTICS_WRITING_APP : mkvmerge v7.7.0 ('Six Voices') 32bit built on Feb 28 2015 23:23:00

_STATISTICS_WRITING_DATE_UTC : 2020-06-18 07:55:24

_STATISTICS_TAGS : BPS DURATION NUMBER_OF_FRAMES NUMBER_OF_BYTES

DURATION : 02:17:14.016000000

NUMBER_OF_FRAMES : 257313

NUMBER_OF_BYTES : 461104896



Video

ID : 1

Format : AVC

Format/Info : Advanced Video Codec

Format profile : [email protected]

Format settings, CABAC : Yes

Format settings, ReFrames : 4 frames

Codec ID : V_MPEG4/ISO/AVC

Duration : 2h 17mn

Bit rate mode : Variable

Bit rate : 3 383 Kbps

Maximum bit rate : 7 000 Kbps

Width : 1 280 pixels

Height : 720 pixels

Display aspect ratio : 16:9

Frame rate mode : Constant

Frame rate : 23.976 fps

Color space : YUV

Chroma subsampling : 4:2:0

Bit depth : 8 bits

Scan type : Progressive

Bits/(Pixel*Frame) : 0.153

Stream size : 3.24 GiB (81%)

Language : English

Default : Yes

Forced : No

Color range : Limited

Color primaries : BT.709

Transfer characteristics : BT.709

Matrix coefficients : BT.709



Audio #1

ID : 2

Format : AC-3

Format/Info : Audio Coding 3

Mode extension : CM (complete main)

Format settings, Endianness : Big

Codec ID : A_AC3

Duration : 2h 17mn

Bit rate mode : Constant

Bit rate : 448 Kbps

Channel(s) : 6 channels

Channel positions : Front: L C R, Side: L R, LFE

Sampling rate : 48.0 KHz

Compression mode : Lossy

Delay relative to video : 17ms

Stream size : 440 MiB (11%)

Title : hdrezka 5.1

Language : Russian

Default : Yes

Forced : No



Audio #2

ID : 3

Format : E-AC-3

Format/Info : Audio Coding 3

Format settings, Endianness : Big

Codec ID : A_EAC3

Duration : 2h 17mn

Bit rate mode : Constant

Bit rate : 256 Kbps

Channel(s) : 6 channels

Channel positions : Front: L C R, Side: L R, LFE

Sampling rate : 48.0 KHz

Compression mode : Lossy

Stream size : 251 MiB (6%)

Language : English

Default : No

Forced : No



Text

ID : 4

Format : UTF-8

Codec ID : S_TEXT/UTF8

Codec ID/Info : UTF-8 Plain Text

Language : English

Default : No

Forced : No





Скриншоты

Discussion

Comments 0

Post Your Comment

Files in this torrent

FILENAMESIZE
The.King.Of.Staten.Island.2020.WEB-DL.720p.mkv4 GB

Alternative Torrents for 'King Of Staten Island'.

TORRENT NAMEADDEDSIZESEEDSPEERSHEALTH
7/18/20201.7 GB207
7/12/20202.2 GB00
7/1/20206 GB00
6/30/20203 GB00
6/25/20205 GB00
6/22/2020794 MB00
6/22/20201.4 GB00
6/18/20202.2 GB00
6/18/20201.5 GB00
6/18/202010 GB00
6/18/20204 GB00
6/17/20201.8 GB00
6/16/20203.3 GB00
6/14/20201.4 GB00
6/13/2020858 MB00