The King Of Staten Island 2020 AMZN WEB-DL 1080p

Torrent Details

The King of Staten Island 2020 AMZN WEB-DL 1080p
The King of Staten Island 2020 AMZN WEB-DL 1080p

NAME
The King of Staten Island 2020 AMZN WEB-DL 1080p.torrent
CATEGORY
Movies
INFOHASH
be52e76f59f964ec6ce5f7d673ea11adf3e7534b
SIZE
10 GB in 1 file
ADDED
Uploaded on 18-06-2020 by our crawler pet called "Spidey".
SWARM
0 seeders & 0 peers
RATING
No votes yet.

Please login to vote for this torrent.


Description

Информация о фильме

Название: Король Стейтен-Айленда

Оригинальное название: The King of Staten Island

Год выхода: 2020

Жанр: Драма, комедия

Режиссер: Джадд Апатоу

В ролях: Пит Дэвидсон, Мариса Томей, Билл Бёрр, Бел Паули, Мод Апатоу, Стив Бушеми, Рики Велес, Мойзес Ариас, Лу Уилсон, Карли Аквилино, Энгус Костелло, Полин Шаламе, Джозеф Пол Кеннеди, Нина Хеллман, Кевин Корригэн



О фильме:

24-летний инфантил по имени Скотт живёт с мамой и младшей сестрой в нью-йоркском районе Стейтен-Айленд. С самого детства парень не может смириться со смертью отца-пожарного и теперь всё время проводит за курением травки и набиванием друзьям кривых татуировок. Когда сестра уезжает в колледж, а его мама впервые после смерти мужа начинает встречаться с мужчиной, тоже пожарным, Скотт решает, что такие перемены в жизни ему не нужны, и теперь он будет пытаться расстроить мамины отношения.









Страна: США

Студия: Apatow Productions, Perfect World (Beijing) Pictures Co., Universal Pictures

Продолжительность: 02:17:15

Перевод: Профессиональный многоголосый | HDRezka Studio

*** Присутствует ненормативная лексика!

Файл

Кодек: AVC

Качество: WEB-DL 1080p | AMZN

Видео: MPEG-4 AVC, 9351 Kбит/с, 1920x800, 23.976 кадр/с

Аудио #1: Русский (АС3, 6 ch, 448 Кбит/с, 48.0 KHz) Профессиональный (многоголосый, закадровый) HDRezka Studio

Аудио #2: Английский (АС3, 6 ch, 640 Кбит/с, 48.0 KHz)

Субтитры: английские

► Без Рекламы!

Трейлер

MediaInfo Источник: The.King.of.Staten.Island.2020.1080p.AMZN.WEB-DL.DDP5.1.H.264-NTG

General

Unique ID : 244391254186677941216322571941525751747 (0xB7DC0B2017C2F2DF9332BBFE28A687C3)

Complete name : The.King.of.Staten.Island.2020.AMZN.WEB-DL.1080p.mkv

Format : Matroska

Format version : Version 4

File size : 10.0 GiB

Duration : 2 h 17 min

Overall bit rate : 10.4 Mb/s

Encoded date : UTC 2020-06-18 10:09:04

Writing application : mkvmerge v7.1.0 ('Good Love') 64bit built on Jul 27 2014 13:06:55

Writing library : libebml v1.3.0 + libmatroska v1.4.1



Video

ID : 1

Format : AVC

Format/Info : Advanced Video Codec

Format profile : [email protected]

Format settings : CABAC / 4 Ref Frames

Format settings, CABAC : Yes

Format settings, Reference fra : 4 frames

Codec ID : V_MPEG4/ISO/AVC

Duration : 2 h 17 min

Bit rate mode : Constant

Bit rate : 9 351 kb/s

Nominal bit rate : 10 000 kb/s

Width : 1 920 pixels

Height : 800 pixels

Display aspect ratio : 2.40:1

Frame rate mode : Constant

Frame rate : 23.976 (24000/1001) FPS

Color space : YUV

Chroma subsampling : 4:2:0

Bit depth : 8 bits

Scan type : Progressive

Bits/(Pixel*Frame) : 0.254

Stream size : 8.97 GiB (90%)

Language : English

Default : Yes

Forced : No

Color range : Limited

Color primaries : BT.709

Transfer characteristics : BT.709

Matrix coefficients : BT.709



Audio #1

ID : 2

Format : AC-3

Format/Info : Audio Coding 3

Commercial name : Dolby Digital

Codec ID : A_AC3

Duration : 2 h 17 min

Bit rate mode : Constant

Bit rate : 448 kb/s

Channel(s) : 6 channels

Channel layout : L R C LFE Ls Rs

Sampling rate : 48.0 kHz

Frame rate : 31.250 FPS (1536 SPF)

Compression mode : Lossy

Stream size : 440 MiB (4%)

Title : MVO | HDRezka Studio

Language : Russian

Service kind : Complete Main

Default : Yes

Forced : No



Audio #2

ID : 3

Format : AC-3

Format/Info : Audio Coding 3

Commercial name : Dolby Digital

Codec ID : A_AC3

Duration : 2 h 17 min

Bit rate mode : Constant

Bit rate : 640 kb/s

Channel(s) : 6 channels

Channel layout : L R C LFE Ls Rs

Sampling rate : 48.0 kHz

Frame rate : 31.250 FPS (1536 SPF)

Compression mode : Lossy

Stream size : 628 MiB (6%)

Language : English

Service kind : Complete Main

Default : No

Forced : No



Text #1

ID : 4

Format : UTF-8

Codec ID : S_TEXT/UTF8

Codec ID/Info : UTF-8 Plain Text

Duration : 2 h 17 min

Bit rate : 120 b/s

Count of elements : 3726

Stream size : 121 KiB (0%)

Language : English

Default : No

Forced : No



Text #2

ID : 5

Format : UTF-8

Codec ID : S_TEXT/UTF8

Codec ID/Info : UTF-8 Plain Text

Duration : 2 h 17 min

Bit rate : 120 b/s

Count of elements : 3746

Stream size : 121 KiB (0%)

Title : SDH

Language : English

Default : No

Forced : No

Скриншоты

Discussion

Comments 0

Post Your Comment

Files in this torrent

FILENAMESIZE
The.King.of.Staten.Island.2020.AMZN.WEB-DL.1080p.mkv10 GB

Alternative Torrents for 'King of Staten Island'.

TORRENT NAMEADDEDSIZESEEDSPEERSHEALTH
7/18/20201.7 GB00
7/12/20202.2 GB00
7/1/20206 GB00
6/30/20203 GB00
6/25/20205 GB00
6/22/2020794 MB00
6/22/20201.4 GB00
6/18/20202.2 GB00
6/18/20201.5 GB00
6/18/202010 GB00
6/18/20204 GB00
6/17/20201.8 GB00
6/16/20203.3 GB00
6/14/20201.4 GB00
6/13/2020858 MB00