Bloodshot (2020) 1080p BluRay X264 Dual Audio [Hindi Org BD DD 5.1 - English DD 5.1] - ESUBS ~ Ranvijay - DusIcTv

Torrent Details


Bloodshot (2020) 1080p BluRay x264 Dual Audio [Hindi Org BD DD 5.1 - English DD 5.1] - ESUBS ~ Ranvijay - DusIcTv

NAME
Bloodshot (2020) 1080p BluRay x264 Dual Audio [Hindi Org BD DD 5.1 - English DD 5.1] - ESUBS ~ Ranvijay - DusIcTv.torrent
CATEGORY
Movies
INFOHASH
9d9bb662b6f29ea227888ec95ba0df2986d5897e
SIZE
4.2 GB in 2 files
ADDED
Uploaded on 18-06-2020 by our crawler pet called "Spidey".
SWARM
0 seeders & 0 peers
RATING
No votes yet.

Please login to vote for this torrent.


Description

Bloodshot (2020) 1080p BluRay x264 Dual Audio [Hindi Org BD DD5.1 - English DD5.1] - ESUBS ~ Ranvijay - DUS-ICTV

Thanks To Hammer For Hindi Audio



General
Format : Matroska
Format version : Version 4
File size : 4.18 GiB
Duration : 1 h 49 min
Overall bit rate : 5 472 kb/s
Movie name : Bloodshot (2020) 1080p BluRay x264 Dual Audio [Hindi Org BD DD5.1 - English DD5.1] - ESUBS ~ Ranvijay - DusIcTv

Video
ID : 1
Format : AVC
Format/Info : Advanced Video Codec
Format profile : [email protected]
Format settings : CABAC / 5 Ref Frames
Format settings, CABAC : Yes
Format settings, Reference frames : 5 frames
Codec ID : V_MPEG4/ISO/AVC
Duration : 1 h 49 min
Bit rate : 4 500 kb/s
Width : 1 920 pixels
Height : 800 pixels
Display aspect ratio : 2.40:1
Frame rate mode : Constant
Frame rate : 23.976 (24000/1001) FPS
Color space : YUV
Chroma subsampling : 4:2:0
Bit depth : 8 bits
Scan type : Progressive
Bits/(Pixel*Frame) : 0.122
Stream size : 3.37 GiB (81%)
Title : ~Ranvijay~

Audio #1
ID : 2
Format : AC-3
Format/Info : Audio Coding 3
Commercial name : Dolby Digital
Codec ID : A_AC3
Duration : 1 h 49 min
Bit rate mode : Constant
Bit rate : 640 kb/s
Channel(s) : 6 channels
Channel layout : L R C LFE Ls Rs
Sampling rate : 48.0 kHz
Frame rate : 31.250 FPS (1536 SPF)
Compression mode : Lossy
Stream size : 500 MiB (12%)
Title : Hindi 640 Kbps Org BD Audio~Ranvijay~
Language : Hindi
Service kind : Complete Main
Default : Yes
Forced : Yes

Audio #2
ID : 3
Format : AC-3
Format/Info : Audio Coding 3
Commercial name : Dolby Digital
Codec ID : A_AC3
Duration : 1 h 49 min
Bit rate mode : Constant
Bit rate : 384 kb/s
Channel(s) : 6 channels
Channel layout : L R C LFE Ls Rs
Sampling rate : 48.0 kHz
Frame rate : 31.250 FPS (1536 SPF)
Compression mode : Lossy
Stream size : 300 MiB (7%)
Title : ~Ranvijay~
Language : English
Service kind : Complete Main
Default : No
Forced : No

Text #1
ID : 4
Format : PGS
Muxing mode : zlib
Codec ID : S_HDMV/PGS
Codec ID/Info : Picture based subtitle format used on BDs/HD-DVDs
Duration : 1 h 41 min
Bit rate : 28.0 kb/s
Count of elements : 2030
Stream size : 20.3 MiB (0%)
Title : ~Ranvijay~
Language : English
Default : Yes
Forced : Yes

Text #2
ID : 5
Format : PGS
Muxing mode : zlib
Codec ID : S_HDMV/PGS
Codec ID/Info : Picture based subtitle format used on BDs/HD-DVDs
Duration : 1 h 43 min
Bit rate : 30.9 kb/s
Count of elements : 2318
Stream size : 22.9 MiB (1%)
Title : ~Ranvijay~
Language : English
Default : No
Forced : No

Menu
00:00:00.000 : en:Chapter 01
00:07:06.384 : en:Chapter 02
00:13:56.210 : en:Chapter 03
00:20:36.861 : en:Chapter 04
00:25:05.546 : en:Chapter 05
00:32:11.179 : en:Chapter 06
00:41:41.499 : en:Chapter 07
00:46:39.380 : en:Chapter 08
00:53:35.629 : en:Chapter 09
01:02:28.495 : en:Chapter 10
01:08:59.344 : en:Chapter 11
01:12:42.525 : en:Chapter 12
01:19:15.918 : en:Chapter 13
01:26:49.996 : en:Chapter 14
01:31:07.379 : en:Chapter 15
01:38:31.531 : en:Chapter 16
01:44:11.245 : en:Chapter 17









Discussion

Comments 0

Post Your Comment

Files in this torrent

FILENAMESIZE
Bloodshot (2020) 1080p BluRay x264 Dual Audio [Hindi Org BD DD5.1 - English DD5.1] - ESUBS ~ Ranvijay - DusIcTv.mkv4.2 GB
Sample - Bloodshot (2020) 1080p BluRay x264 Dual Audio [Hindi Org BD DD5.1 - English DD5.1] - ESUBS ~ Ranvijay - DusIcTv.mkv28 MB

Alternative Torrents for 'Bloodshot BluRay Dual Audio Hindi Org BD DD English DD . ESUBS Ranvijay DusIcTv'.

There are no alternative torrents found.