Mermaid Down 2019 WEB-DLRip-AVC ExKinoRay

Torrent Details

Mermaid Down 2019 WEB-DLRip-AVC<span style=color:#fc9c6d> ExKinoRay</span>
Mermaid Down 2019 WEB-DLRip-AVC<span style=color:#fc9c6d> ExKinoRay</span>

NAME
Mermaid Down 2019 WEB-DLRip-AVC ExKinoRay.torrent
CATEGORY
Movies
INFOHASH
e0de6258c4e427c4a2e230fb395c4728c5e48cf4
SIZE
2 GB in 1 file
ADDED
Uploaded on 19-06-2020 by our crawler pet called "Spidey".
SWARM
0 seeders & 0 peers
RATING
No votes yet.

Please login to vote for this torrent.


Description

Информация о фильме

Название: Русалка на суше

Оригинальное название: Mermaid Down

Год выхода: 2019

Жанр: Ужасы, фэнтези, триллер, детектив

Режиссер: Джеффри Греллман

В ролях: Меган Тереза Риппи, Александра Бокова, Филлип Андре Ботельо, Эрин Ри, Берт Калвер, Кэролайн Бэмфорд, Джессика Хонор Карлтон, Эшли Корделия, Мишель Галлахер, Мелисса Луго, Мегган Кайзер, Э. Шеперд Стивенсон



О фильме:

«Русалок замечали в этих водах на протяжении многих сотен лет. Они выглядывают посмотреть: любопытство побеждает разум. Может, они и правда существуют?» — такие разговоры ведут рыбаки на шхуне в Тихом океане и отправляются на охоту. И охота оказывается удачной… В их сети попадает русалка, и они решают отрубить ей хвост, перевезти и запереть в психушке. Хорошее место для пленницы, которая пытается убедить других, что она русалка. Но хорошее ли это место будет для остальных? Способны ли эти стены сдержать гнев морского создания? Начинается иная охота. И от нее сложно скрыться, особенно в воде.









Страна: США

Студия: Grellman Film, Heartpine Productions, Mermaid Down

Продолжительность: 01:34:38

Перевод: Профессиональный (многоголосый, закадровый) | iTunes



Файл

Формат: MKV

Качество: WEB-DLRip-AVC

Видео: MPEG-4 AVC, 1024x426, - 2210 Кбит/с

Аудио: Русский (AC3, 6 ch, 384 Кбит/с), английский (AC3, 6 ch, 384 Кбит/с)

Субтитры: Русские (Forced), английские (Full, SDH)



MIОбщее

Уникальный идентификатор : 187079191346024980533217975780019870112 (0x8CBE2443BB5A047278465879516D19A0)

Полное имя : D:MOVIESMermaid.Down.2019.WEB-DLRip-AVC.ExKinoRay.mkv

Формат : Matroska

Версия формата : Version 4

Размер файла : 1,96 Гбайт

Продолжительность : 1 ч. 34 м.

Общий поток : 2 972 Кбит/сек

Дата кодирования : UTC 2020-06-19 16:51:55

Программа кодирования : mkvmerge v45.0.0 ('Heaven in Pennies') 64-bit

Библиотека кодирования : libebml v1.3.10 + libmatroska v1.5.2



Видео

Идентификатор : 1

Формат : AVC

Формат/Информация : Advanced Video Codec

Профиль формата : [email protected]

Настройки формата : CABAC / 13 Ref Frames

Параметр CABAC формата : Да

Параметр RefFrames формата : 13 кадров

Идентификатор кодека : V_MPEG4/ISO/AVC

Продолжительность : 1 ч. 34 м.

Битрейт : 2 210 Кбит/сек

Ширина : 1 024 пикселя

Высота : 426 пикселей

Соотношение сторон : 2,40:1

Режим частоты кадров : Постоянный

Частота кадров : 23,976 (24000/1001) кадра/сек

Цветовое пространство : YUV

Субдискретизация насыщенности : 4:2:0

Битовая глубина : 8 бит

Тип развёртки : Прогрессивная

Бит/(Пиксели*Кадры) : 0.211

Размер потока : 1,46 Гбайт (74%)

Библиотека кодирования : x264 core 160 r3000 33f9e14

Настройки программы : cabac=1 / ref=13 / deblock=1:-3:-3 / analyse=0x3:0x133 / me=umh / subme=10 / psy=1 / psy_rd=1.05:0.10 / mixed_ref=1 / me_range=32 / chroma_me=1 / trellis=2 / 8x8dct=1 / cqm=0 / deadzone=21,11 / fast_pskip=0 / chroma_qp_offset=-3 / threads=6 / lookahead_threads=1 / sliced_threads=0 / nr=0 / decimate=0 / interlaced=0 / bluray_compat=0 / constrained_intra=0 / bframes=11 / b_pyramid=2 / b_adapt=2 / b_bias=0 / direct=3 / weightb=1 / open_gop=0 / weightp=2 / keyint=240 / keyint_min=23 / scenecut=40 / intra_refresh=0 / rc=2pass / mbtree=0 / bitrate=2210 / ratetol=1.0 / qcomp=0.60 / qpmin=0 / qpmax=69 / qpstep=4 / cplxblur=20.0 / qblur=0.5 / ip_ratio=1.40 / pb_ratio=1.30 / aq=1:1.00

Язык : English

Default : Да

Forced : Нет

Цветовой диапазон : Limited

Основные цвета : BT.709

Характеристики трансфера : BT.709

Коэффициенты матрицы : BT.709



Аудио #1

Идентификатор : 2

Формат : AC-3

Формат/Информация : Audio Coding 3

Коммерческое название : Dolby Digital

Идентификатор кодека : A_AC3

Продолжительность : 1 ч. 34 м.

Вид битрейта : Постоянный

Битрейт : 384 Кбит/сек

Каналы : 6 каналов

Channel layout : L R C LFE Ls Rs

Частота : 48,0 КГц

Частота кадров : 31,250 кадров/сек (1536 SPF)

Метод сжатия : С потерями

Размер потока : 260 Мбайт (13%)

Заголовок : iTunes

Язык : Russian

Service kind : Complete Main

Default : Да

Forced : Нет



Аудио #2

Идентификатор : 3

Формат : AC-3

Формат/Информация : Audio Coding 3

Коммерческое название : Dolby Digital

Идентификатор кодека : A_AC3

Продолжительность : 1 ч. 34 м.

Вид битрейта : Постоянный

Битрейт : 384 Кбит/сек

Каналы : 6 каналов

Channel layout : L R C LFE Ls Rs

Частота : 48,0 КГц

Частота кадров : 31,250 кадров/сек (1536 SPF)

Метод сжатия : С потерями

Размер потока : 260 Мбайт (13%)

Язык : English

Service kind : Complete Main

Default : Нет

Forced : Нет



Текст #1

Идентификатор : 4

Формат : UTF-8

Идентификатор кодека : S_TEXT/UTF8

Идентификатор кодека/Информация : UTF-8 Plain Text

Продолжительность : 5 м. 45 с.

Битрейт : 27 бит/сек

Count of elements : 14

Размер потока : 1,18 Кбайт (0%)

Заголовок : Forced

Язык : Russian

Default : Да

Forced : Да



Текст #2

Идентификатор : 5

Формат : UTF-8

Идентификатор кодека : S_TEXT/UTF8

Идентификатор кодека/Информация : UTF-8 Plain Text

Продолжительность : 1 ч. 31 м.

Битрейт : 32 бит/сек

Count of elements : 716

Размер потока : 21,7 Кбайт (0%)

Заголовок : Full-length

Язык : English

Default : Нет

Forced : Нет



Текст #3

Идентификатор : 6

Формат : UTF-8

Идентификатор кодека : S_TEXT/UTF8

Идентификатор кодека/Информация : UTF-8 Plain Text

Продолжительность : 1 ч. 32 м.

Битрейт : 36 бит/сек

Count of elements : 937

Размер потока : 24,9 Кбайт (0%)

Заголовок : SDH

Язык : English

Default : Нет

Forced : Нет



Меню

00:00:00.000 : en:Глава 1

00:07:54.140 : en:Глава 2

00:16:10.177 : en:Глава 3

00:24:08.780 : en:Глава 4

00:32:30.740 : en:Глава 5

00:40:33.681 : en:Глава 6

00:49:00.646 : en:Глава 7

00:57:12.512 : en:Глава 8

01:05:32.345 : en:Глава 9

01:14:03.356 : en:Глава 10

01:22:33.282 : en:Глава 11

01:29:37.080 : en:Глава 12

Скриншоты





Discussion

Comments 0

Post Your Comment

Files in this torrent

FILENAMESIZE
Mermaid.Down.2019.WEB-DLRip-AVC.ExKinoRay.mkv2 GB

Alternative Torrents for 'Mermaid Down DLRipAVC'.

TORRENT NAMEADDEDSIZESEEDSPEERSHEALTH
9/20/20201.7 GB7030
9/20/2020859 MB6538
Yesterday1.1 GB2843
9/14/20201.1 GB162
9/17/202039 MB101
9/7/20207 MB90
9/7/2020377 MB81
9/14/2020598 MB72
9/17/202069 MB62
9/18/2020723 MB52
9/18/2020218 MB51
9/18/20201 GB51
9/17/2020293 MB51
9/14/2020349 MB51
9/10/20201.1 GB50