Lost Bullet (2020) WEB-DL 1080p

Torrent Details

Lost Bullet (2020) WEB-DL 1080p
Lost Bullet (2020) WEB-DL 1080p

NAME
Lost Bullet (2020) WEB-DL 1080p.torrent
CATEGORY
Movies
INFOHASH
62b5d6409c8cc842ace40836b5275b675fef4625
SIZE
3.8 GB in 1 file
ADDED
Uploaded on 20-06-2020 by our crawler pet called "Spidey".
SWARM
0 seeders & 0 peers
RATING
No votes yet.

Please login to vote for this torrent.


Description

Информация о фильме

Название: Потерянная пуля

Оригинальное название: Balle perdue

Год выхода: 2020

Жанр: Боевик, триллер, криминал





Режиссер: Гийом Пьерре





В ролях: Альбан Ленуар, Николя Дювошель, Рамзи Бедиа, Стефи Сельма, Род Парадо, Себастьян Лаланн, Arthur Aspaturian, Патрик Медиони, Александр Филип, Стивен Скардиккьо





О фильме:

Мелкий преступник, ставший полицейским механиком для оперативной группы go fast, вынужден защищать свою невиновность, когда его наставник убит грязными полицейскими.











Страна: Франция

Продолжительность: 01:33:06

Перевод: Субтитры





Файл

Кодек: x.264

Качество: WEB-DL 1080p

Видео: AVC, 1920x1080 (16:9), 25.000 fps, 5 360 kb/s

Аудио: E-AC3, 48.0 kHz, 6 ch, 640 kb/s (French)

Субтитры: Русские, английские + Multi



Рекламы нет | Трейлер| Сэмпл



MIGeneral

Unique ID : 198722090740616862664281179612163723163 (0x95807B863991CE3583132E646739CF9B)

Complete name : Lost.Bullet.(2020).WEB-DL.1080p.mkv

Format : Matroska

Format version : Version 4

File size : 3.80 GiB

Duration : 1 h 33 min

Overall bit rate mode : Variable

Overall bit rate : 5 850 kb/s

Encoded date : UTC 2020-06-20 12:41:58

Writing application : mkvmerge v8.3.0 ('Over the Horizon') 64bit

Writing library : libebml v1.3.1 + libmatroska v1.4.2



Video

ID : 1

Format : AVC

Format/Info : Advanced Video Codec

Format profile : [email protected]

Format settings : CABAC / 3 Ref Frames

Format settings, CABAC : Yes

Format settings, ReFrames : 3 frames

Codec ID : V_MPEG4/ISO/AVC

Duration : 1 h 33 min

Bit rate mode : Variable

Bit rate : 5 360 kb/s

Maximum bit rate : 8 040 kb/s

Width : 1 920 pixels

Height : 1 080 pixels

Display aspect ratio : 16:9

Frame rate mode : Constant

Frame rate : 25.000 FPS

Color space : YUV

Chroma subsampling : 4:2:0

Bit depth : 8 bits

Scan type : Progressive

Bits/(Pixel*Frame) : 0.103

Stream size : 3.39 GiB (89%)

Writing library : x264 core 148 r2717 0d2410d

Encoding settings : cabac=1 / ref=3 / deblock=1:0:0 / analyse=0x1:0x111 / me=umh / subme=10 / psy=1 / psy_rd=1.00:0.00 / mixed_ref=1 / me_range=24 / chroma_me=1 / trellis=2 / 8x8dct=0 / cqm=0 / deadzone=21,11 / fast_pskip=1 / chroma_qp_offset=-2 / threads=8 / lookahead_threads=1 / sliced_threads=0 / nr=0 / decimate=1 / interlaced=0 / bluray_compat=0 / stitchable=1 / constrained_intra=0 / bframes=2 / b_pyramid=0 / b_adapt=2 / b_bias=0 / direct=3 / weightb=1 / open_gop=0 / weightp=2 / keyint=250 / keyint_min=25 / scenecut=0 / intra_refresh=0 / rc_lookahead=50 / rc=2pass / mbtree=1 / bitrate=5360 / ratetol=1.0 / qcomp=0.50 / qpmin=6 / qpmax=51 / qpstep=4 / cplxblur=20.0 / qblur=0.5 / vbv_maxrate=8040 / vbv_bufsize=10720 / nal_hrd=vbr / filler=0 / ip_ratio=1.40 / aq=1:1.00

Default : Yes

Forced : No



Audio

ID : 2

Format : E-AC-3

Format/Info : Enhanced AC-3

Commercial name : Dolby Digital Plus

Codec ID : A_EAC3

Duration : 1 h 33 min

Bit rate mode : Constant

Bit rate : 640 kb/s

Channel(s) : 6 channels

Channel layout : L R C LFE Ls Rs

Sampling rate : 48.0 kHz

Frame rate : 31.250 FPS (1536 SPF)

Compression mode : Lossy

Stream size : 426 MiB (11%)

Title : French

Language : French

Service kind : Complete Main

Default : Yes

Forced : No



Text #1

ID : 3

Format : UTF-8

Codec ID : S_TEXT/UTF8

Codec ID/Info : UTF-8 Plain Text

Duration : 1 h 25 min

Bit rate : 44 b/s

Count of elements : 669

Stream size : 27.6 KiB (0%)

Title : Russian

Language : Russian

Default : Yes

Forced : Yes



Text #2

ID : 4

Format : UTF-8

Codec ID : S_TEXT/UTF8

Codec ID/Info : UTF-8 Plain Text

Duration : 1 h 25 min

Bit rate : 27 b/s

Count of elements : 668

Stream size : 17.3 KiB (0%)

Title : English

Language : English

Default : No

Forced : No



Text #3

ID : 5

Format : UTF-8

Codec ID : S_TEXT/UTF8

Codec ID/Info : UTF-8 Plain Text

Duration : 1 h 25 min

Bit rate : 47 b/s

Count of elements : 665

Stream size : 29.8 KiB (0%)

Title : Arabic

Language : Arabic

Default : No

Forced : No



Text #4

ID : 6

Format : UTF-8

Codec ID : S_TEXT/UTF8

Codec ID/Info : UTF-8 Plain Text

Duration : 1 h 25 min

Bit rate : 31 b/s

Count of elements : 669

Stream size : 19.6 KiB (0%)

Title : Chinese Simplified

Language : Chinese

Default : No

Forced : No



Text #5

ID : 7

Format : UTF-8

Codec ID : S_TEXT/UTF8

Codec ID/Info : UTF-8 Plain Text

Duration : 1 h 25 min

Bit rate : 31 b/s

Count of elements : 684

Stream size : 19.4 KiB (0%)

Title : Chinese Traditional

Language : Chinese

Default : No

Forced : No



Text #6

ID : 8

Format : UTF-8

Codec ID : S_TEXT/UTF8

Codec ID/Info : UTF-8 Plain Text

Duration : 1 h 25 min

Bit rate : 24 b/s

Count of elements : 661

Stream size : 15.6 KiB (0%)

Title : Czech

Language : Czech

Default : No

Forced : No



Text #7

ID : 9

Format : UTF-8

Codec ID : S_TEXT/UTF8

Codec ID/Info : UTF-8 Plain Text

Duration : 1 h 25 min

Bit rate : 26 b/s

Count of elements : 644

Stream size : 16.6 KiB (0%)

Title : Danish

Language : Danish

Default : No

Forced : No



Text #8

ID : 10

Format : UTF-8

Codec ID : S_TEXT/UTF8

Codec ID/Info : UTF-8 Plain Text

Duration : 1 h 25 min

Bit rate : 22 b/s

Count of elements : 621

Stream size : 14.3 KiB (0%)

Title : Dutch

Language : Dutch

Default : No

Forced : No



Text #9

ID : 11

Format : UTF-8

Codec ID : S_TEXT/UTF8

Codec ID/Info : UTF-8 Plain Text

Duration : 1 h 25 min

Bit rate : 24 b/s

Count of elements : 608

Stream size : 15.4 KiB (0%)

Title : Finnish

Language : Finnish

Default : No

Forced : No



Text #10

ID : 12

Format : UTF-8

Codec ID : S_TEXT/UTF8

Codec ID/Info : UTF-8 Plain Text

Duration : 1 h 30 min

Bit rate : 48 b/s

Count of elements : 1069

Stream size : 32.1 KiB (0%)

Title : French

Language : French

Default : No

Forced : No



Text #11

ID : 13

Format : UTF-8

Codec ID : S_TEXT/UTF8

Codec ID/Info : UTF-8 Plain Text

Duration : 1 h 25 min

Bit rate : 30 b/s

Count of elements : 668

Stream size : 19.0 KiB (0%)

Title : German

Language : German

Default : No

Forced : No



Text #12

ID : 14

Format : UTF-8

Codec ID : S_TEXT/UTF8

Codec ID/Info : UTF-8 Plain Text

Duration : 1 h 25 min

Bit rate : 43 b/s

Count of elements : 678

Stream size : 27.3 KiB (0%)

Title : Greek

Language : Greek

Default : No

Forced : No



Text #13

ID : 15

Format : UTF-8

Codec ID : S_TEXT/UTF8

Codec ID/Info : UTF-8 Plain Text

Duration : 1 h 25 min

Bit rate : 46 b/s

Count of elements : 660

Stream size : 29.3 KiB (0%)

Title : Hebrew

Language : Hebrew

Default : No

Forced : No



Text #14

ID : 16

Format : UTF-8

Codec ID : S_TEXT/UTF8

Codec ID/Info : UTF-8 Plain Text

Duration : 1 h 31 min

Bit rate : 25 b/s

Count of elements : 685

Stream size : 17.2 KiB (0%)

Title : Hungarian

Language : Hungarian

Default : No

Forced : No



Text #15

ID : 17

Format : UTF-8

Codec ID : S_TEXT/UTF8

Codec ID/Info : UTF-8 Plain Text

Duration : 1 h 25 min

Bit rate : 25 b/s

Count of elements : 651

Stream size : 16.1 KiB (0%)

Title : Indonesian

Language : Indonesian

Default : No

Forced : No



Text #16

ID : 18

Format : UTF-8

Codec ID : S_TEXT/UTF8

Codec ID/Info : UTF-8 Plain Text

Duration : 1 h 25 min

Bit rate : 24 b/s

Count of elements : 641

Stream size : 15.5 KiB (0%)

Title : Italian

Language : Italian

Default : No

Forced : No



Text #17

ID : 19

Format : UTF-8

Codec ID : S_TEXT/UTF8

Codec ID/Info : UTF-8 Plain Text

Duration : 1 h 25 min

Bit rate : 22 b/s

Count of elements : 686

Stream size : 14.0 KiB (0%)

Title : Japanese

Language : Japanese

Default : No

Forced : No



Text #18

ID : 20

Format : UTF-8

Codec ID : S_TEXT/UTF8

Codec ID/Info : UTF-8 Plain Text

Duration : 1 h 25 min

Bit rate : 32 b/s

Count of elements : 669

Stream size : 20.7 KiB (0%)

Title : Korean

Language : Korean

Default : No

Forced : No



Text #19

ID : 21

Format : UTF-8

Codec ID : S_TEXT/UTF8

Codec ID/Info : UTF-8 Plain Text

Duration : 1 h 25 min

Bit rate : 25 b/s

Count of elements : 640

Stream size : 16.2 KiB (0%)

Title : Norwegian Bokmal

Language : Norwegian Bokmal

Default : No

Forced : No



Text #20

ID : 22

Format : UTF-8

Codec ID : S_TEXT/UTF8

Codec ID/Info : UTF-8 Plain Text

Duration : 1 h 25 min

Bit rate : 22 b/s

Count of elements : 580

Stream size : 14.3 KiB (0%)

Title : Polish

Language : Polish

Default : No

Forced : No



Text #21

ID : 23

Format : UTF-8

Codec ID : S_TEXT/UTF8

Codec ID/Info : UTF-8 Plain Text

Duration : 1 h 25 min

Bit rate : 27 b/s

Count of elements : 668

Stream size : 17.3 KiB (0%)

Title : Portuguese

Language : Portuguese

Default : No

Forced : No



Text #22

ID : 24

Format : UTF-8

Codec ID : S_TEXT/UTF8

Codec ID/Info : UTF-8 Plain Text

Duration : 1 h 25 min

Bit rate : 27 b/s

Count of elements : 659

Stream size : 17.0 KiB (0%)

Title : Brazilian Portuguese

Language : Portuguese

Default : No

Forced : No



Text #23

ID : 25

Format : UTF-8

Codec ID : S_TEXT/UTF8

Codec ID/Info : UTF-8 Plain Text

Duration : 1 h 25 min

Bit rate : 31 b/s

Count of elements : 605

Stream size : 19.7 KiB (0%)

Title : Romanian

Language : Romanian

Default : No

Forced : No



Text #24

ID : 26

Format : UTF-8

Codec ID : S_TEXT/UTF8

Codec ID/Info : UTF-8 Plain Text

Duration : 1 h 25 min

Bit rate : 23 b/s

Count of elements : 654

Stream size : 14.8 KiB (0%)

Title : Spanish

Language : Spanish

Default : No

Forced : No



Text #25

ID : 27

Format : UTF-8

Codec ID : S_TEXT/UTF8

Codec ID/Info : UTF-8 Plain Text

Duration : 1 h 25 min

Bit rate : 26 b/s

Count of elements : 651

Stream size : 16.4 KiB (0%)

Title : European Spanish

Language : Spanish

Default : No

Forced : No



Text #26

ID : 28

Format : UTF-8

Codec ID : S_TEXT/UTF8

Codec ID/Info : UTF-8 Plain Text

Duration : 1 h 25 min

Bit rate : 24 b/s

Count of elements : 614

Stream size : 15.5 KiB (0%)

Title : Swedish

Language : Swedish

Default : No

Forced : No



Text #27

ID : 29

Format : UTF-8

Codec ID : S_TEXT/UTF8

Codec ID/Info : UTF-8 Plain Text

Duration : 1 h 25 min

Bit rate : 71 b/s

Count of elements : 684

Stream size : 44.8 KiB (0%)

Title : Thai

Language : Thai

Default : No

Forced : No



Text #28

ID : 30

Format : UTF-8

Codec ID : S_TEXT/UTF8

Codec ID/Info : UTF-8 Plain Text

Duration : 1 h 25 min

Bit rate : 27 b/s

Count of elements : 620

Stream size : 17.0 KiB (0%)

Title : Turkish

Language : Turkish

Default : No

Forced : No



Text #29

ID : 31

Format : UTF-8

Codec ID : S_TEXT/UTF8

Codec ID/Info : UTF-8 Plain Text

Duration : 1 h 25 min

Bit rate : 34 b/s

Count of elements : 653

Stream size : 21.3 KiB (0%)

Title : Vietnamese

Language : Vietnamese

Default : No

Forced : NoСкриншоты

Discussion

Comments 0

Post Your Comment

Files in this torrent

FILENAMESIZE
Lost.Bullet.(2020).WEB-DL.1080p.mkv3.8 GB

Alternative Torrents for 'Lost Bullet'.

TORRENT NAMEADDEDSIZESEEDSPEERSHEALTH
7/15/20201.8 GB00
7/15/2020908 MB00
7/15/20201.2 GB00
7/15/20203.8 GB00
7/11/20206.5 GB00
7/11/20202 GB00
7/7/20201.5 GB00
7/7/20201.5 GB00
7/1/20201.5 GB00
6/26/20203.8 GB00
6/24/20201.6 GB00
6/23/20202.3 GB00
6/22/20201.6 GB00
6/22/20201.4 GB00
6/22/20203.8 GB00