The Invisible Man 2020 BluRay 1080p [Hindi DDP 7 1 + English DD 5.1] X264 ESubs - MkvCinemas [Telly]

Torrent Details

The Invisible Man 2020 BluRay 1080p [Hindi DDP 7 1 + English DD 5.1] x264 ESubs - mkvCinemas [Telly]
The Invisible Man 2020 BluRay 1080p [Hindi DDP 7 1 + English DD 5.1] x264 ESubs - mkvCinemas [Telly]

NAME
The Invisible Man 2020 BluRay 1080p [Hindi DDP 7 1 + English DD 5.1] x264 ESubs - mkvCinemas [Telly].torrent
CATEGORY
Movies
INFOHASH
3de3bcfeb2bd749046f0bd453787cc4d686d410f
SIZE
4.3 GB in 1 file
ADDED
Uploaded on 21-06-2020 by our crawler pet called "Spidey".
SWARM
0 seeders & 0 peers
RATING
No votes yet.

Please login to vote for this torrent.


Description

कोरोना से बचाव:

घर पर फिल्में देखें। घर में रहें, सुरक्षित रहें। सरकार द्वारा दिए गए सभी दिशानिर्देशों और सावधानियों का जरूर पालन करें।



Fight Corona:

Watch movies at home. Stay Home, Stay Safe. Must Follow All the guidelines and precautions advised by the Government.















********************************



The Invisible Man 2020 BluRay 1080p [Hindi DDP 7.1 + English DD 5.1] x264 ESubs - mkvCinemas [Telly]



********************************



Mediainfo:-

Format                      : Matroska

Format version              : Version 2

File size                   : 4.27 GiB

Duration                    : 2h 4mn

Overall bit rate mode       : Variable

Overall bit rate            : 4 918 Kbps





Video

ID                          : 1

Format                      : AVC

Format/Info                 : Advanced Video Codec

Format profile              : [email protected]

Format settings, CABAC      : Yes

Format settings, ReFrames   : 4 frames

Muxing mode                 : Header stripping

Codec ID                    : V_MPEG4/ISO/AVC

Duration                    : 2h 4mn

Bit rate mode               : Variable

Bit rate                    : 4 179 Kbps

Nominal bit rate            : 3 500 Kbps

Maximum bit rate            : 62.5 Mbps

Width                       : 1 920 pixels

Height                      : 800 pixels

Display aspect ratio        : 2.40:1

Frame rate mode             : Constant

Frame rate                  : 23.976 fps

Color space                 : YUV





Audio #1

ID                          : 2

Format                      : E-AC-3

Format/Info                 : Audio Coding 3

Format settings, Endianness : Big

Muxing mode                 : Header stripping

Codec ID                    : A_EAC3

Duration                    : 2h 4mn

Bit rate mode               : Constant

Bit rate                    : 768 kb/s

Channel(s)                  : 8 channels

Channel positions           : Front: L C R, Side: L R, LFE

Sampling rate               : 48.0 KHz

Compression mode            : Lossy

Stream size                 : 456 KiB (0%)

Title                       : mkvCinemas

Language                    : Hindi

Default                     : Yes

Forced                      : No



Audio #2

ID                          : 3

Format                      : AC-3

Format/Info                 : Audio Coding 3

Mode extension              : CM (complete main)

Format settings, Endianness : Big

Muxing mode                 : Header stripping

Codec ID                    : A_AC3

Duration                    : 2h 4mn

Bit rate mode               : Constant

Bit rate                    : 640 Kbps

Channel(s)                  : 6 channels

Channel positions           : Front: L C R, Side: L R, LFE

Sampling rate               : 48.0 KHz

Bit depth                   : 16 bits

Compression mode            : Lossy

Stream size                 : 569 MiB (13%)

Title                       : mkvCinemas

Language                    : English

Default                     : No

Forced                      : No



Text #1

ID                          : 4

Format                      : PGS

Muxing mode                 : zlib

Codec ID                    : S_HDMV/PGS

Codec ID/Info               : The same subtitle format used on BDs/HD-DVDs

Title                       : English-PGS

Language                    : English

Default                     : Yes

Forced                      : Yes



Text #2

ID                          : 5

Format                      : PGS

Muxing mode                 : zlib

Codec ID                    : S_HDMV/PGS

Codec ID/Info               : The same subtitle format used on BDs/HD-DVDs

Title                       : Hindi-PGS

Language                    : Hindi

Default                     : No

Forced                      : No



Text #3

ID                          : 6

Format                      : UTF-8

Codec ID                    : S_TEXT/UTF8

Codec ID/Info               : UTF-8 Plain Text

Title                       : SDH SRT

Language                    : English

Default                     : No

Forced                      : No



Text #4

ID                          : 7

Format                      : UTF-8

Codec ID                    : S_TEXT/UTF8

Codec ID/Info               : UTF-8 Plain Text

Title                       : mkvCinemas

Language                    : English

Default                     : No

Forced                      : No



Menu

00:00:00.000                : en:Chapter 01

00:11:05.455                : en:Chapter 02

00:16:08.967                : en:Chapter 03

00:19:16.319                : en:Chapter 04

00:25:27.649                : en:Chapter 05

00:35:52.230                : en:Chapter 06

00:39:50.176                : en:Chapter 07

00:46:35.456                : en:Chapter 08

00:52:41.863                : en:Chapter 09

01:01:22.007                : en:Chapter 10

01:08:59.797                : en:Chapter 11

01:14:49.730                : en:Chapter 12

01:19:23.920                : en:Chapter 13

01:24:46.533                : en:Chapter 14

01:30:25.330                : en:Chapter 15

01:35:24.921                : en:Chapter 16

01:39:33.336                : en:Chapter 17

01:43:04.171                : en:Chapter 18

01:48:54.687                : en:Chapter 19

01:53:38.596                : en:Chapter 20









********************************



We don't add Watermark or Audio Tags.

Wherever you Share our Stuffs, Give Proper Credit to "mkvCinemas @Team Telly"

We Keep All Torrents. In case of re-seed, please pm.



********************************













********************************







********************************

Discussion

Comments 0

Post Your Comment

Files in this torrent

FILENAMESIZE
The Invisible Man 2020 BluRay 1080p [Hindi DDP 7.1 + English DD 5.1] x264 ESubs - mkvCinemas [Telly].mkv4.3 GB

Alternative Torrents for 'Invisible Man BluRay Hindi DDP English DD . ESubs mkvCinemas Telly'.

TORRENT NAMEADDEDSIZESEEDSPEERSHEALTH
6/21/20204.3 GB00