Lost Bullet 2020 WEB-DL H264 1080p

Torrent Details

Lost Bullet 2020 WEB-DL H264 1080p
Lost Bullet 2020 WEB-DL H264 1080p

NAME
Lost Bullet 2020 WEB-DL H264 1080p.torrent
CATEGORY
Movies
INFOHASH
1cc0ac0559e4abab22c90c5660bec277c44b3bca
SIZE
4.3 GB in 1 file
ADDED
Uploaded on 21-06-2020 by our crawler pet called "Spidey".
SWARM
0 seeders & 0 peers
RATING
No votes yet.

Please login to vote for this torrent.


Description

Информация о фильме

Название: Потерянная пуля

Оригинальное название: Balle perdue / Lost Bullet

Год выхода: 2020

Жанр: Боевик, триллер, криминал

Режиссер: Гийом Пьерре

В ролях: Альбан Ленуар, Николя Дювошель, Рамзи Бедиа, Стефи Сельма, Род Парадо, Себастьян Лаланн, Патрик Медиони, Александр Филип, Стивен Скардиккьо, Дэмиен ЛеКонте, Тибо Эврар, Энни Серра, Паскаль Арбийо, Роберт Хоспьян



О фильме:

Одаренного механика обвиняют в убийстве, которого он не совершал. Единственным доказательством его невиновности является пуля с места преступления, застрявшая в пропавшей машине.









Страна: Франция

Студия: Inoxy Films, Nolita TV, Versus Production

Продолжительность: 01:33:06

Перевод: Любительский многоголосый, любительский одноголосый



Файл

Кодек: AVC

Качество: WEB-DL 1080p

Видео: MPEG-4 AVC, 5360 Kбит/с, 1920x1080, 25.000 кадр/с

Аудио #1: Русский (АС3, 2 ch, 192 Кбит/с, 48.0 KHz) Любительский (многоголосый, закадровый) @[email protected]

Аудио #2: Русский (АС3, 6 ch, 640 Кбит/с, 48.0 KHz) Любительский (одноголосый, закадровый) Дмитрий Хихидок

Аудио #3: Французский (АС3, 6 ch, 640 Кбит/с, 48.0 KHz)

Субтитры: Русские (Full), английские, испанские, французские, немецкие, итальянские, португальские | Нетфликс

► Без Рекламы!

Трейлер

MediaInfo Источник: Lost.Bullet.2020.1080p.WEB.H264-CRYPTIC

General

Unique ID : 209198500530150618493823392173507908935 (0x9D622A67FC48DF96A98A231C2C9A9547)

Complete name : Lost.Bullet.2020.WEB-DL.H264.1080p.mkv

Format : Matroska

Format version : Version 4

File size : 4.34 GiB

Duration : 1 h 33 min

Overall bit rate mode : Variable

Overall bit rate : 6 681 kb/s

Encoded date : UTC 2020-06-21 07:08:59

Writing application : mkvmerge v7.1.0 ('Good Love') 64bit built on Jul 27 2014 13:06:55

Writing library : libebml v1.3.0 + libmatroska v1.4.1



Video

ID : 1

Format : AVC

Format/Info : Advanced Video Codec

Format profile : [email protected]

Format settings : CABAC / 3 Ref Frames

Format settings, CABAC : Yes

Format settings, Reference fra : 3 frames

Codec ID : V_MPEG4/ISO/AVC

Duration : 1 h 33 min

Bit rate mode : Variable

Bit rate : 5 360 kb/s

Maximum bit rate : 8 040 kb/s

Width : 1 920 pixels

Height : 1 080 pixels

Display aspect ratio : 16:9

Frame rate mode : Constant

Frame rate : 25.000 FPS

Color space : YUV

Chroma subsampling : 4:2:0

Bit depth : 8 bits

Scan type : Progressive

Bits/(Pixel*Frame) : 0.103

Stream size : 3.39 GiB (78%)

Writing library : x264 core 148 r2717 0d2410d

Encoding settings : cabac=1 / ref=3 / deblock=1:0:0 / analyse=0x1:0x111 / me=umh / subme=10 / psy=1 / psy_rd=1.00:0.00 / mixed_ref=1 / me_range=24 / chroma_me=1 / trellis=2 / 8x8dct=0 / cqm=0 / deadzone=21,11 / fast_pskip=1 / chroma_qp_offset=-2 / threads=8 / lookahead_threads=1 / sliced_threads=0 / nr=0 / decimate=1 / interlaced=0 / bluray_compat=0 / stitchable=1 / constrained_intra=0 / bframes=2 / b_pyramid=0 / b_adapt=2 / b_bias=0 / direct=3 / weightb=1 / open_gop=0 / weightp=2 / keyint=250 / keyint_min=25 / scenecut=0 / intra_refresh=0 / rc_lookahead=50 / rc=2pass / mbtree=1 / bitrate=5360 / ratetol=1.0 / qcomp=0.50 / qpmin=6 / qpmax=51 / qpstep=4 / cplxblur=20.0 / qblur=0.5 / vbv_maxrate=8040 / vbv_bufsize=10720 / nal_hrd=vbr / filler=0 / ip_ratio=1.40 / aq=1:1.00

Language : French

Default : Yes

Forced : No



Audio #1

ID : 2

Format : AC-3

Format/Info : Audio Coding 3

Commercial name : Dolby Digital

Codec ID : A_AC3

Duration : 1 h 33 min

Bit rate mode : Constant

Bit rate : 192 kb/s

Channel(s) : 2 channels

Channel layout : L R

Sampling rate : 48.0 kHz

Frame rate : 31.250 FPS (1536 SPF)

Compression mode : Lossy

Stream size : 128 MiB (3%)

Title : @[email protected]

Language : Russian

Service kind : Complete Main

Default : Yes

Forced : No



Audio #2

ID : 3

Format : AC-3

Format/Info : Audio Coding 3

Commercial name : Dolby Digital

Codec ID : A_AC3

Duration : 1 h 33 min

Bit rate mode : Constant

Bit rate : 640 kb/s

Channel(s) : 6 channels

Channel layout : L R C LFE Ls Rs

Sampling rate : 48.0 kHz

Frame rate : 31.250 FPS (1536 SPF)

Compression mode : Lossy

Stream size : 426 MiB (10%)

Title : Хихидок

Language : Russian

Service kind : Complete Main

Default : No

Forced : No



Audio #3

ID : 4

Format : AC-3

Format/Info : Audio Coding 3

Commercial name : Dolby Digital

Codec ID : A_AC3

Duration : 1 h 33 min

Bit rate mode : Constant

Bit rate : 640 kb/s

Channel(s) : 6 channels

Channel layout : L R C LFE Ls Rs

Sampling rate : 48.0 kHz

Frame rate : 31.250 FPS (1536 SPF)

Compression mode : Lossy

Stream size : 426 MiB (10%)

Language : French

Service kind : Complete Main

Default : No

Forced : No



Text #1

ID : 5

Format : UTF-8

Codec ID : S_TEXT/UTF8

Codec ID/Info : UTF-8 Plain Text

Duration : 1 h 25 min

Bit rate : 44 b/s

Count of elements : 669

Stream size : 27.6 KiB (0%)

Title : Russian

Language : Russian

Default : No

Forced : No



Text #2

ID : 6

Format : UTF-8

Codec ID : S_TEXT/UTF8

Codec ID/Info : UTF-8 Plain Text

Duration : 1 h 25 min

Bit rate : 27 b/s

Count of elements : 668

Stream size : 17.3 KiB (0%)

Title : English

Language : English

Default : No

Forced : No



Text #3

ID : 7

Format : UTF-8

Codec ID : S_TEXT/UTF8

Codec ID/Info : UTF-8 Plain Text

Duration : 1 h 30 min

Bit rate : 48 b/s

Count of elements : 1069

Stream size : 32.1 KiB (0%)

Title : French

Language : French

Default : No

Forced : No



Text #4

ID : 8

Format : UTF-8

Codec ID : S_TEXT/UTF8

Codec ID/Info : UTF-8 Plain Text

Duration : 1 h 25 min

Bit rate : 30 b/s

Count of elements : 668

Stream size : 19.0 KiB (0%)

Title : German

Language : German

Default : No

Forced : No



Text #5

ID : 9

Format : UTF-8

Codec ID : S_TEXT/UTF8

Codec ID/Info : UTF-8 Plain Text

Duration : 1 h 25 min

Bit rate : 23 b/s

Count of elements : 654

Stream size : 14.8 KiB (0%)

Title : Spanish

Language : Spanish

Default : No

Forced : No



Text #6

ID : 10

Format : UTF-8

Codec ID : S_TEXT/UTF8

Codec ID/Info : UTF-8 Plain Text

Duration : 1 h 25 min

Bit rate : 24 b/s

Count of elements : 641

Stream size : 15.5 KiB (0%)

Title : Italian

Language : Italian

Default : No

Forced : No



Text #7

ID : 11

Format : UTF-8

Codec ID : S_TEXT/UTF8

Codec ID/Info : UTF-8 Plain Text

Duration : 1 h 25 min

Bit rate : 27 b/s

Count of elements : 668

Stream size : 17.3 KiB (0%)

Title : Portuguese

Language : Portuguese

Default : No

Forced : No

Скриншоты

Discussion

Comments 0

Post Your Comment

Files in this torrent

FILENAMESIZE
Lost.Bullet.2020.WEB-DL.H264.1080p.mkv4.3 GB

Alternative Torrents for 'Lost Bullet'.

TORRENT NAMEADDEDSIZESEEDSPEERSHEALTH
7/15/20201.8 GB00
7/15/2020908 MB00
7/15/20201.2 GB00
7/15/20203.8 GB00
7/11/20206.5 GB00
7/11/20202 GB00
7/7/20201.5 GB00
7/7/20201.5 GB00
7/1/20201.5 GB00
6/26/20203.8 GB00
6/24/20201.6 GB00
6/23/20202.3 GB00
6/22/20201.6 GB00
6/22/20201.4 GB00
6/22/20203.8 GB00