The Invisible Man (2020) 1080p BluRay X264 Dual Audio [Hindi BD DD 5.1 - English DD 5.1] - ESUB ~ Ranvijay -DUS-ICTV

Torrent Details

The Invisible Man (2020) 1080p BluRay x264 Dual Audio [Hindi BD DD 5.1 - English DD 5.1] - ESUB ~ Ranvijay -DUS-ICTV
The Invisible Man (2020) 1080p BluRay x264 Dual Audio [Hindi BD DD 5.1 - English DD 5.1] - ESUB ~ Ranvijay -DUS-ICTV

NAME
The Invisible Man (2020) 1080p BluRay x264 Dual Audio [Hindi BD DD 5.1 - English DD 5.1] - ESUB ~ Ranvijay -DUS-ICTV.torrent
CATEGORY
Movies
INFOHASH
8700c9cc76a4b27b81595a40a7d2ef4e7d09ddc2
SIZE
4.7 GB in 2 files
ADDED
Uploaded on 22-06-2020 by our crawler pet called "Spidey".
SWARM
0 seeders & 0 peers
RATING
No votes yet.

Please login to vote for this torrent.


Description

The Invisible Man (2020) 1080p BluRay x264 Dual Audio [Hindi BD DD5.1 - English DD5.1] - MSUBS ~ Ranvijay -DUS-ICTV

Thanks To Hammer For Hindi Audio



General
Format : Matroska
Format version : Version 4
File size : 4.64 GiB
Duration : 2 h 4 min
Overall bit rate : 5 343 kb/s
Movie name : The Invisible Man (2020) 1080p BluRay x264 Dual Audio [Hindi BD DD5.1 - English DD5.1] - MSUBS ~ Ranvijay -DUS-ICTV

Video
ID : 1
Format : AVC
Format/Info : Advanced Video Codec
Format profile : [email protected]
Format settings : CABAC / 5 Ref Frames
Format settings, CABAC : Yes
Format settings, Reference frames : 5 frames
Codec ID : V_MPEG4/ISO/AVC
Duration : 2 h 4 min
Bit rate : 4 499 kb/s
Width : 1 920 pixels
Height : 804 pixels
Display aspect ratio : 2.40:1
Frame rate mode : Constant
Frame rate : 23.976 (24000/1001) FPS
Color space : YUV
Chroma subsampling : 4:2:0
Bit depth : 8 bits
Scan type : Progressive
Bits/(Pixel*Frame) : 0.122
Stream size : 3.91 GiB (84%)
Title : ~Ranvijay~

Audio #1
ID : 2
Format : AC-3
Format/Info : Audio Coding 3
Commercial name : Dolby Digital
Codec ID : A_AC3
Duration : 2 h 4 min
Bit rate mode : Constant
Bit rate : 448 kb/s
Channel(s) : 6 channels
Channel layout : L R C LFE Ls Rs
Sampling rate : 48.0 kHz
Frame rate : 31.250 FPS (1536 SPF)
Compression mode : Lossy
Stream size : 399 MiB (8%)
Title : ~Ranvijay~
Language : Hindi
Service kind : Complete Main
Default : Yes
Forced : Yes

Audio #2
ID : 3
Format : AC-3
Format/Info : Audio Coding 3
Commercial name : Dolby Digital
Codec ID : A_AC3
Duration : 2 h 4 min
Bit rate mode : Constant
Bit rate : 384 kb/s
Channel(s) : 6 channels
Channel layout : L R C LFE Ls Rs
Sampling rate : 48.0 kHz
Frame rate : 31.250 FPS (1536 SPF)
Compression mode : Lossy
Stream size : 342 MiB (7%)
Title : ~Ranvijay~
Language : English
Service kind : Complete Main
Default : No
Forced : Yes

Text #1
ID : 4
ID in the original source medium : 4608 (0x1200)
Format : PGS
Muxing mode : zlib
Codec ID : S_HDMV/PGS
Codec ID/Info : Picture based subtitle format used on BDs/HD-DVDs
Duration : 1 h 50 min
Bit rate : 24.9 kb/s
Count of elements : 2096
Stream size : 19.6 MiB (0%)
Title : ~Ranvijay~
Language : English
Default : Yes
Forced : Yes
Original source medium : Blu-ray

Text #2
ID : 5
Format : PGS
Muxing mode : zlib
Codec ID : S_HDMV/PGS
Codec ID/Info : Picture based subtitle format used on BDs/HD-DVDs
Duration : 2 h 1 min
Bit rate : 15.7 kb/s
Count of elements : 1762
Stream size : 13.7 MiB (0%)
Title : ~Ranvijay~
Language : Hindi
Default : No
Forced : No

Menu
00:00:00.000 : en:Chapter 01
00:11:05.456 : en:Chapter 02
00:16:08.968 : en:Chapter 03
00:19:16.321 : en:Chapter 04
00:25:27.651 : en:Chapter 05
00:35:52.233 : en:Chapter 06
00:39:50.179 : en:Chapter 07
00:46:35.459 : en:Chapter 08
00:52:41.867 : en:Chapter 09
01:01:22.011 : en:Chapter 10
01:08:59.802 : en:Chapter 11
01:14:49.735 : en:Chapter 12
01:19:23.925 : en:Chapter 13
01:24:46.539 : en:Chapter 14
01:30:25.336 : en:Chapter 15
01:35:24.927 : en:Chapter 16
01:39:33.342 : en:Chapter 17
01:43:04.178 : en:Chapter 18
01:48:54.694 : en:Chapter 19
01:53:38.603 : en:Chapter 20









Discussion

Comments 0

Post Your Comment

Files in this torrent

FILENAMESIZE
Sample - The Invisible Man (2020) 1080p BluRay x264 Dual Audio [Hindi BD DD5.1 - English DD5.1] - ESUB ~ Ranvijay -DUS-ICTV.mkv25.5 MB
The Invisible Man (2020) 1080p BluRay x264 Dual Audio [Hindi BD DD5.1 - English DD5.1] - ESUB ~ Ranvijay -DUS-ICTV.mkv4.6 GB

Alternative Torrents for 'Invisible Man BluRay Dual Audio Hindi BD DD English DD . ESUB Ranvijay DUSICTV'.

There are no alternative torrents found.