L Uomo Invisibile-The Invisible Man (2020) Multilanguage Ac3 5.1 BDRip 1080p H264 [ArMor]

Torrent Details


L uomo invisibile-The Invisible Man (2020) Multilanguage Ac3 5.1 BDRip 1080p H264 <span style=color:#fc9c6d>[ArMor]</span>

NAME
L uomo invisibile-The Invisible Man (2020) Multilanguage Ac3 5.1 BDRip 1080p H264 [ArMor].torrent
CATEGORY
Movies
INFOHASH
2e77a630982e28c83e010cde96369bd078129a41
SIZE
4.9 GB in 23 files
ADDED
Uploaded on 22-06-2020 by our crawler pet called "Spidey".
SWARM
0 seeders & 0 peers
RATING
No votes yet.

Please login to vote for this torrent.


Description





 



















PLOT: When Cecilia's abusive ex takes his own life and leaves her his fortune, she suspects his death was a hoax. As a series of coincidences turn lethal, Cecilia works to prove that she is being hunted by someone nobody can see.





General

Unique ID                                : 304366951850457735712088970998714568328 (0xE4FAF1527F6F828F1954A0591A318E88)

Complete name                            : L.uomo invisibile-The Invisible Man (2020) Multilanguage Ac3 5.1 BDRip 1080p H264 [ArMor].mkv

Format                                   : Matroska

Format version                           : Version 4

File size                                : 4.52 GiB

Duration                                 : 2 h 4 min

Overall bit rate                         : 5 199 kb/s

Encoded date                             : UTC 2020-06-21 13:26:25

Writing application                      : HandBrake 1.3.2 2020050300

Writing library                          : Lavf58.29.100

ErrorDetectionType                       : Per level 1



Video

ID                                       : 1

Format                                   : AVC

Format/Info                              : Advanced Video Codec

Format profile                           : [email protected]

Format settings                          : CABAC / 4 Ref Frames

Format settings, CABAC                   : Yes

Format settings, Reference frames        : 4 frames

Codec ID                                 : V_MPEG4/ISO/AVC

Duration                                 : 2 h 4 min

Bit rate                                 : 3 304 kb/s

Nominal bit rate                         : 3 500 kb/s

Width                                    : 1 918 pixels

Height                                   : 804 pixels

Display aspect ratio                     : 2.40:1

Frame rate mode                          : Constant

Frame rate                               : 23.976 (24000/1001) FPS

Color space                              : YUV

Chroma subsampling                       : 4:2:0

Bit depth                                : 8 bits

Scan type                                : Progressive

Bits/(Pixel*Frame)                       : 0.089

Stream size                              : 2.87 GiB (64%)

Writing library                          : x264 core 157 r2935 545de2f

Encoding settings                        : cabac=1 / ref=2 / deblock=1:0:0 / analyse=0x1:0x111 / me=hex / subme=6 / psy=1 / psy_rd=1.00:0.00 / mixed_ref=1 / me_range=16 / chroma_me=1 / trellis=1 / 8x8dct=0 / cqm=0 / deadzone=21,11 / fast_pskip=1 / chroma_qp_offset=-2 / threads=18 / lookahead_threads=3 / sliced_threads=0 / nr=0 / decimate=1 / interlaced=0 / bluray_compat=0 / constrained_intra=0 / bframes=3 / b_pyramid=2 / b_adapt=1 / b_bias=0 / direct=1 / weightb=1 / open_gop=0 / weightp=1 / keyint=240 / keyint_min=24 / scenecut=40 / intra_refresh=0 / rc_lookahead=30 / rc=abr / mbtree=1 / bitrate=3500 / ratetol=1.0 / qcomp=0.60 / qpmin=0 / qpmax=69 / qpstep=4 / vbv_maxrate=50000 / vbv_bufsize=62500 / nal_hrd=none / filler=0 / ip_ratio=1.40 / aq=1:1.00

Default                                  : Yes

Forced                                   : No

Color range                              : Limited

Color primaries                          : BT.709

Transfer characteristics                 : BT.709

Matrix coefficients                      : BT.709



Audio #1

ID                                       : 2

Format                                   : AC-3

Format/Info                              : Audio Coding 3

Commercial name                          : Dolby Digital

Codec ID                                 : A_AC3

Duration                                 : 2 h 4 min

Bit rate mode                            : Constant

Bit rate                                 : 448 kb/s

Channel(s)                               : 6 channels

Channel layout                           : L R C LFE Ls Rs

Sampling rate                            : 48.0 kHz

Frame rate                               : 31.250 FPS (1536 SPF)

Compression mode                         : Lossy

Stream size                              : 399 MiB (9%)

Title                                    : Surround

Language                                 : Italian

Service kind                             : Complete Main

Default                                  : Yes

Forced                                   : No



Audio #2

ID                                       : 3

Format                                   : AC-3

Format/Info                              : Audio Coding 3

Commercial name                          : Dolby Digital

Codec ID                                 : A_AC3

Duration                                 : 2 h 4 min

Bit rate mode                            : Constant

Bit rate                                 : 448 kb/s

Channel(s)                               : 6 channels

Channel layout                           : L R C LFE Ls Rs

Sampling rate                            : 48.0 kHz

Frame rate                               : 31.250 FPS (1536 SPF)

Compression mode                         : Lossy

Stream size                              : 399 MiB (9%)

Title                                    : Surround

Language                                 : English

Service kind                             : Complete Main

Default                                  : No

Forced                                   : No



Audio #3

ID                                       : 4

Format                                   : AC-3

Format/Info                              : Audio Coding 3

Commercial name                          : Dolby Digital

Codec ID                                 : A_AC3

Duration                                 : 2 h 4 min

Bit rate mode                            : Constant

Bit rate                                 : 448 kb/s

Channel(s)                               : 6 channels

Channel layout                           : L R C LFE Ls Rs

Sampling rate                            : 48.0 kHz

Frame rate                               : 31.250 FPS (1536 SPF)

Compression mode                         : Lossy

Stream size                              : 399 MiB (9%)

Title                                    : Surround

Language                                 : French

Service kind                             : Complete Main

Default                                  : No

Forced                                   : No



Audio #4

ID                                       : 5

Format                                   : AC-3

Format/Info                              : Audio Coding 3

Commercial name                          : Dolby Digital

Codec ID                                 : A_AC3

Duration                                 : 2 h 4 min

Bit rate mode                            : Constant

Bit rate                                 : 448 kb/s

Channel(s)                               : 6 channels

Channel layout                           : L R C LFE Ls Rs

Sampling rate                            : 48.0 kHz

Frame rate                               : 31.250 FPS (1536 SPF)

Compression mode                         : Lossy

Stream size                              : 399 MiB (9%)

Title                                    : Surround

Language                                 : Spanish

Service kind                             : Complete Main

Default                                  : No

Forced                                   : No

Discussion

Comments 0

Post Your Comment

Files in this torrent

FILENAMESIZE
98546tygh.jpg20.6 KB
L.uomo invisibile-The Invisible Man (2020) Multilanguage Ac3 5.1 BDRip 1080p H264 [ArMor].mkv4.5 GB
L.Uomo.Invisibile.sub_track10_swe.sup13.3 MB
L.Uomo.Invisibile.sub_track11_por.sup15.1 MB
L.Uomo.Invisibile.sub_track12_hin.sup13.7 MB
L.Uomo.Invisibile.sub_track13_ara.sup8.7 MB
L.Uomo.Invisibile.sub_track14_ice.sup17.2 MB
L.Uomo.Invisibile.sub_track15_eng.sup60.4 MB
L.Uomo.Invisibile.sub_track16_fre.sup55.4 MB
L.Uomo.Invisibile.sub_track17_ita.sup57 MB
L.Uomo.Invisibile.sub_track18_spa.sup55.7 MB
L.Uomo.Invisibile.sub_track19_fre.sup171.7 KB
L.Uomo.Invisibile.sub_track20_ita.sup327.7 KB
L.Uomo.Invisibile.sub_track21_spa.sup403.5 KB
L.Uomo.Invisibile.sub_track22_hin.sup767.6 KB
L.Uomo.Invisibile.sub_track2_eng.sup19.7 MB
L.Uomo.Invisibile.sub_track3_fre.sup13.4 MB
L.Uomo.Invisibile.sub_track4_ita.sup15.2 MB
L.Uomo.Invisibile.sub_track5_spa.sup14.9 MB
L.Uomo.Invisibile.sub_track6_dut.sup13.2 MB
L.Uomo.Invisibile.sub_track7_dan.sup13.3 MB
L.Uomo.Invisibile.sub_track8_fin.sup12.4 MB
L.Uomo.Invisibile.sub_track9_nor.sup12.8 MB

Alternative Torrents for 'uomo invisibile Invisible Man Multilanguage'.

TORRENT NAMEADDEDSIZESEEDSPEERSHEALTH
6/22/20204.9 GB00