The Invisible Man (2020) BluRay 1080p 10bit HEVC [Hindi Org DDP 7 1 -English AAC 5.1] X265 -RONIN

Torrent Details

The Invisible Man (2020) BluRay 1080p 10bit HEVC [Hindi Org DDP 7 1 -English AAC 5.1] x265 -RONIN
The Invisible Man (2020) BluRay 1080p 10bit HEVC [Hindi Org DDP 7 1 -English AAC 5.1] x265 -RONIN

NAME
The Invisible Man (2020) BluRay 1080p 10bit HEVC [Hindi Org DDP 7 1 -English AAC 5.1] x265 -RONIN.torrent
CATEGORY
Movies
INFOHASH
03db752e8b89ff71e9d977cce221669fc25d1427
SIZE
2.7 GB in 1 file
ADDED
Uploaded on 23-06-2020 by our crawler pet called "Spidey".
SWARM
0 seeders & 0 peers
RATING
No votes yet.

Please login to vote for this torrent.


Description









The Invisible Man (2020) BluRay 1080p 10bit HEVC [Hindi Org DDP 7.1 -English AAC 5.1] x265 -RONIN



[code]Source :- BD50 - JATO[/code]



[code]Media Info:-

General

Unique ID                                : 110695082224938101595947406631606232257 (0x534718EC47981081F20BD9F8234924C1)

Complete name                            : The Invisible Man (2020) BluRay 1080p 10bit HEVC [Hindi Org DDP 7.1 -English AAC 5.1] x265 -RONIN.mkv

Format                                   : Matroska

Format version                           : Version 4

File size                                : 2.66 GiB

Duration                                 : 2 h 4 min

Overall bit rate                         : 3 061 kb/s

Movie name                               : The Invisible Man (2020) BluRay 1080p 10bit HEVC [Hindi Org DDP 7.1 -English AAC 5.1] x265 -RONIN

Encoded date                             : UTC 2020-06-22 08:59:04

Writing application                      : mkvmerge v28.2.0 ('The Awakening') 64-bit

Writing library                          : libebml v1.3.6 + libmatroska v1.4.9

Cover                                    : Yes

Attachments                              : cover.png



Video

ID                                       : 1

Format                                   : HEVC

Format/Info                              : High Efficiency Video Coding

Format profile                           : Main [email protected]@High

Codec ID                                 : V_MPEGH/ISO/HEVC

Duration                                 : 2 h 4 min

Bit rate                                 : 2 058 kb/s

Width                                    : 1 920 pixels

Height                                   : 800 pixels

Display aspect ratio                     : 2.40:1

Frame rate mode                          : Constant

Frame rate                               : 23.976 (24000/1001) FPS

Color space                              : YUV

Chroma subsampling                       : 4:2:0

Bit depth                                : 10 bits

Bits/(Pixel*Frame)                       : 0.056

Stream size                              : 1.79 GiB (67%)

Title                                    : The Invisible Man (2020) BluRay 1080p 10bit HEVC [Hindi Org DDP 7.1 -English AAC 5.1] x265 -RONIN

Writing library                          : x265 3.4+6-g73f96ff39:[Windows][GCC 11.0.0][64 bit] 10bit

Encoding settings                        : cpuid=1111039 / frame-threads=5 / numa-pools=24,24 / wpp / no-pmode / no-pme / no-psnr / no-ssim / log-level=2 / input-csp=1 / input-res=1920x800 / interlace=0 / total-frames=178936 / level-idc=40 / high-tier=1 / uhd-bd=0 / ref=5 / no-allow-non-conformance / no-repeat-headers / annexb / no-aud / no-hrd / info / hash=0 / no-temporal-layers / open-gop / min-keyint=23 / keyint=250 / gop-lookahead=0 / bframes=8 / b-adapt=2 / b-pyramid / bframe-bias=0 / rc-lookahead=80 / lookahead-slices=4 / scenecut=40 / hist-scenecut=0 / radl=0 / no-splice / no-intra-refresh / ctu=64 / min-cu-size=8 / no-rect / no-amp / max-tu-size=32 / tu-inter-depth=1 / tu-intra-depth=1 / limit-tu=0 / rdoq-level=2 / dynamic-rd=0.00 / no-ssim-rd / signhide / no-tskip / nr-intra=0 / nr-inter=0 / no-constrained-intra / no-strong-intra-smoothing / max-merge=2 / limit-refs=3 / limit-modes / me=3 / subme=5 / merange=57 / temporal-mvp / no-frame-dup / no-hme / weightp / weightb / no-analyze-src-pics / deblock=-3:-3 / no-sao / no-sao-non-deblock / rd=4 / selective-sao=0 / no-early-skip / rskip / rskip-edge-threshold=0.050000 / no-fast-intra / no-tskip-fast / no-cu-lossless / b-intra / no-splitrd-skip / rdpenalty=0 / psy-rd=2.00 / psy-rdoq=1.00 / no-rd-refine / no-lossless / cbqpoffs=0 / crqpoffs=0 / rc=crf / crf=19.0 / qcomp=0.60 / qpstep=4 / stats-write=0 / stats-read=0 / vbv-maxrate=30000 / vbv-bufsize=30000 / vbv-init=0.9 / crf-max=0.0 / crf-min=0.0 / ipratio=1.40 / pbratio=1.30 / aq-mode=3 / aq-strength=1.00 / cutree / zone-count=0 / no-strict-cbr / qg-size=32 / no-rc-grain / qpmax=69 / qpmin=0 / no-const-vbv / sar=0 / overscan=0 / videoformat=5 / range=0 / colorprim=2 / transfer=2 / colormatrix=2 / chromaloc=0 / display-window=0 / cll=0,0 / min-luma=0 / max-luma=1023 / log2-max-poc-lsb=8 / vui-timing-info / vui-hrd-info / slices=1 / no-opt-qp-pps / no-opt-ref-list-length-pps / multi-pass-opt-rps / scenecut-bias=0.05 / hist-threshold=0.01 / no-opt-cu-delta-qp / no-aq-motion / no-hdr10 / no-hdr10-opt / no-dhdr10-opt / no-idr-recovery-sei / analysis-reuse-level=0 / analysis-save-reuse-level=0 / analysis-load-reuse-level=0 / scale-factor=0 / refine-intra=0 / refine-inter=0 / refine-mv=1 / refine-ctu-distortion=0 / no-limit-sao / ctu-info=0 / no-lowpass-dct / refine-analysis-type=0 / copy-pic=1 / max-ausize-factor=1.0 / no-dynamic-refine / no-single-sei / no-hevc-aq / no-svt / no-field / qp-adaptation-range=1.00 / no-scenecut-aware-qpconformance-window-offsets / right=0 / bottom=0 / decoder-max-rate=0

Default                                  : Yes

Forced                                   : No



Audio #1

ID                                       : 2

Format                                   : E-AC-3

Format/Info                              : Enhanced AC-3

Commercial name                          : Dolby Digital Plus

Format profile                           : Blu-ray Disc

Codec ID                                 : A_EAC3

Duration                                 : 2 h 4 min

Bit rate mode                            : Constant

Bit rate                                 : 768 kb/s

Channel(s)                               : 8 channels

Channel layout                           : L R C LFE Ls Rs Lb Rb

Sampling rate                            : 48.0 kHz

Frame rate                               : 31.250 FPS (1536 SPF)

Compression mode                         : Lossy

Stream size                              : 683 MiB (25%)

Title                                    : Hindi DDP 7.1 -RONIN

Language                                 : Hindi

Service kind                             : Complete Main

Default                                  : Yes

Forced                                   : No



Audio #2

ID                                       : 3

Format                                   : AAC LC SBR

Format/Info                              : Advanced Audio Codec Low Complexity with Spectral Band Replication

Commercial name                          : HE-AAC

Format settings                          : Explicit

Codec ID                                 : A_AAC-2

Duration                                 : 2 h 4 min

Bit rate                                 : 205 kb/s

Channel(s)                               : 6 channels

Channel layout                           : C L R Ls Rs LFE

Sampling rate                            : 48.0 kHz

Frame rate                               : 23.438 FPS (2048 SPF)

Compression mode                         : Lossy

Delay relative to video                  : 40 ms

Stream size                              : 182 MiB (7%)

Title                                    : English AAC 5.1 -RONIN

Language                                 : English

Default                                  : No

Forced                                   : No



Text #1

ID                                       : 4

Format                                   : PGS

Muxing mode                              : zlib

Codec ID                                 : S_HDMV/PGS

Codec ID/Info                            : Picture based subtitle format used on BDs/HD-DVDs

Duration                                 : 1 h 50 min

Bit rate                                 : 25.0 kb/s

Count of elements                        : 2098

Stream size                              : 19.6 MiB (1%)

Language                                 : English

Default                                  : No

Forced                                   : No



Text #2

ID                                       : 5

Format                                   : PGS

Muxing mode                              : zlib

Codec ID                                 : S_HDMV/PGS

Codec ID/Info                            : Picture based subtitle format used on BDs/HD-DVDs

Duration                                 : 2 h 1 min

Bit rate                                 : 69.2 kb/s

Count of elements                        : 3930

Stream size                              : 60.3 MiB (2%)

Language                                 : English

Default                                  : No

Forced                                   : No



Menu

00:00:00.000                             : en:Chapter 01

00:11:05.748                             : en:Chapter 02

00:16:09.135                             : en:Chapter 03

00:19:16.322                             : en:Chapter 04

00:25:27.651                             : en:Chapter 05

00:35:52.233                             : en:Chapter 06

00:39:50.179                             : en:Chapter 07

00:46:35.459                             : en:Chapter 08

00:52:41.867                             : en:Chapter 09

01:01:22.012                             : en:Chapter 10

01:08:59.802                             : en:Chapter 11

01:14:49.735                             : en:Chapter 12

01:19:23.926                             : en:Chapter 13

01:24:46.540                             : en:Chapter 14

01:30:25.337                             : en:Chapter 15

01:35:24.928                             : en:Chapter 16

01:39:33.342                             : en:Chapter 17

01:43:04.220                             : en:Chapter 18

01:48:54.695                             : en:Chapter 19

01:53:38.812                             : en:Chapter 20

[/code]





























Enjoy The Quality by RONIN



Discussion

Comments 0

Post Your Comment

Files in this torrent

FILENAMESIZE
The Invisible Man (2020) BluRay 1080p 10bit HEVC [Hindi Org DDP 7.1 -English AAC 5.1] x265 -RONIN.mkv2.7 GB

Alternative Torrents for 'Invisible Man BluRay bit HEVC Hindi Org DDP English AAC . RONIN'.

There are no alternative torrents found.