Bulbbul (2020) Hindi 720p WEBRip X264 AAC Eng Sub

Torrent Details

Bulbbul (2020) Hindi 720p WEBRip x264 AAC   Eng Sub
Bulbbul (2020) Hindi 720p WEBRip x264 AAC   Eng Sub

NAME
Bulbbul (2020) Hindi 720p WEBRip x264 AAC Eng Sub.torrent
CATEGORY
Movies
INFOHASH
ab7d7c9f2ce0f2b782a70cba370e892dd685a072
SIZE
951 MB in 1 file
ADDED
Uploaded on 24-06-2020 by our crawler pet called "Spidey".
SWARM
0 seeders & 0 peers
RATING
No votes yet.

Please login to vote for this torrent.


Description

Bulbbul (2020):
A child bride grows up to be an enigmatic woman presiding over her household,
harboring a painful past as supernatural murders of men plague her village.

Starring:Tripti Dimri,Avinash Tiwary,Rahul Bose.

Initial release: 24 June 2020

Director: Anvita Dutt Guptan
Screenplay: Anvita Dutt Guptan

Producer: Anushka Sharma
Production company: Clean Slate Films

Format : Matroska
Format version : Version 4
File size : 951 MiB
Duration : 1 h 34 min
Overall bit rate mode : Variable
Overall bit rate : 1 413 kb/s

Video
ID : 1
Format : AVC
Format/Info : Advanced Video Codec
Format profile : [email protected]
Format settings : CABAC / 4 Ref Frames
Format settings, CABAC : Yes
Format settings, Reference : 4 frames
Codec ID : V_MPEG4/ISO/AVC
Duration : 1 h 34 min
Bit rate mode : Variable
Bit rate : 942 kb/s
Maximum bit rate : 14.0 Mb/s
Width : 1 280 pixels
Height : 720 pixels
Display aspect ratio : 16:9
Frame rate mode : Constant
Frame rate : 24.000 FPS
Color space : YUV
Chroma subsampling : 4:2:0
Bit depth : 8 bits
Scan type : Progressive
Bits/(Pixel*Frame) : 0.043
Stream size : 834 MiB (67%)
Writing library : x264 core

Audio #1
ID : 2
Format : AAC LC
Format/Info : Advanced Audio Codec Low Complexity
Codec ID : A_AAC-2
Duration : 1 h 34 min
Bit rate : 149 kb/s
Channel(s) : 2 channels
Channel layout : L R
Sampling rate : 44.1 kHz
Frame rate : 43.066 FPS (1024 SPF)
Compression mode : Lossy
Stream size : 100 MiB (11%)
Language : Hindi
Default : Yes
Forced : Yes


Text
ID : 4
Format : UTF-8
Codec ID : S_TEXT/UTF8
Codec ID/Info : UTF-8 Plain Text
Duration : 1 h 30 min
Bit rate : 24 b/s
Count of elements : 660
Stream size : 16.3 KiB (0%)
Title : English
Language : English
Default : No
Forced : No

Discussion

Comments 0

Post Your Comment

Files in this torrent

FILENAMESIZE
Bulbbul (2020) Hindi 720p WEBRip x264 AAC . Eng Sub.mkv951.1 MB

Alternative Torrents for 'Bulbbul Hindi AAC Eng Sub'.

TORRENT NAMEADDEDSIZESEEDSPEERSHEALTH
6/24/2020951 MB00