Операция Дезертир (2020) SATRip by Nicodem Files-x

Torrent Details


Операция Дезертир (2020) SATRip <span style=color:#fc9c6d>by Nicodem Files-x</span>

NAME
Операция Дезертир (2020) SATRip by Nicodem Files-x.torrent
CATEGORY
Television
INFOHASH
05850ae9da61838f46dd21e066e7f179c8950065
SIZE
2.5 GB in 0 files
ADDED
Uploaded on 24-06-2020 by our crawler pet called "Spidey".
SWARM
0 seeders & 0 peers
RATING
No votes yet.

Please login to vote for this torrent.


Description

Информация о фильме

Оригинальное название: Операция "Дезертир"

Год выхода: 2020

Жанр: Драма, военный

Режиссер: Александр Сальников

В ролях: Кирилл Мелехов, Вадим Лялько, Сергей Калантай, Сергей Фролов, Вероника Пляшкевич, Виктория Левченко (III), Юрий Фелипенко, Владислав Дмитренко, Ярослав Шахторин, Александр Рудинский, Владимир Фетисов, Валерий Швец, Георгий Поволоцкий, Вадим Курилко, Георгий Лещенко, Константин Октябрьский



О фильме:

Весна 1944 г. Оккупированная Беларусь. В результате проведённой разведывательной операции были получены данные о том, что в квадрате Z находится лагерь для военнопленных советской армии и штрафников Вермахта и СС. Лагерем управляет комендант полковник Блюхер, а помогает ему молодой и дерзкий капитан СС Шульц. Но есть в лагере и третья сила, которая никому не подчиняется и внушает ужас – это полковник СС Оскар Дирлевангер. Командование советских войск принимает решение провести диверсионную операцию, выполнение которой ранее казалось невозможным, цель которой нейтрализовать Оскара Дирлевангера. Возглавить операцию вызвался контрразведчик Александр Громов. Он подготовил крайне рискованную операцию "Дезертир", которая должна пройти в два этапа. Но война вносит жёсткие коррективы в планы группы.



Страна: Россия, Украина

Студия: ООО Кинокомпания Виктория-Универсал "Продакшн"

Продолжительность: 4 х ~ 00:49:50

Перевод: Не требуется



Файл

Кодек: XviD

Качество: SATRip

Видео: XviD, ~ 1613 Кбит/с, 720x400, 25 кадр/с

Звук: AC3, 2 ch, 192 Кбит/с



Скриншоты









MediaInfo

General

Complete name : C:01.Операция Дезертир.(2020).SATRip.by.Nicodem.Files-x.avi

Format : AVI

Format/Info : Audio Video Interleave

File size : 648 MiB

Duration : 49mn 54s

Overall bit rate : 1 815 Kbps

Writing application : VirtualDubMod 1.5.10.3 | www.virtualdub-fr.org || (build 2550/release)

Writing library : VirtualDubMod build 2550/release



Video

ID : 0

Format : MPEG-4 Visual

Format profile : Advanced [email protected]

Format settings, BVOP : 1

Format settings, QPel : No

Format settings, GMC : No warppoints

Format settings, Matrix : Custom

Codec ID : XVID

Codec ID/Hint : XviD

Duration : 49mn 54s

Bit rate : 1 613 Kbps

Width : 720 pixels

Height : 400 pixels

Display aspect ratio : 16:9

Frame rate : 25.000 fps

Color space : YUV

Chroma subsampling : 4:2:0

Bit depth : 8 bits

Scan type : Progressive

Compression mode : Lossy

Bits/(Pixel*Frame) : 0.224

Stream size : 576 MiB (89%)

Writing library : XviD 73



Audio

ID : 1

Format : AC-3

Format/Info : Audio Coding 3

Mode extension : CM (complete main)

Codec ID : 2000

Duration : 49mn 54s

Bit rate mode : Constant

Bit rate : 192 Kbps

Channel(s) : 2 channels

Channel positions : Front: L R

Sampling rate : 48.0 KHz

Bit depth : 16 bits

Compression mode : Lossy

Stream size : 68.5 MiB (11%)

Alignment : Split accross interleaves

Interleave, duration : 40 ms (1.00 video frame)

Interleave, preload duration : 500 ms

Внимание! Раздача ведётся путём добавления новых серий

Раздача ведётся путём добавления новых серий, при каждом добавлении создаётся новый торрент. Чтобы начать докачку новой серии, пользователям необходимо сделать следующее:



- Остановить скачивание.

- Удалить старый торрент у себя из клиента (старые серии удалять не надо).

- Скачать новый торрент и запустить его у себя в клиенте вместо старого, при этом указать клиенту путь в старую папку куда и должно происходить скачивание новых серий.



Ваш клиент при этом должен произвести хеширование (проверку) старой папки (если не производит сам - помогите ему сделать это), и будет докачивать только те серии которых у вас ещё нет. Старые серии при этом не удаляются, а продолжают раздаваться!

Если вы уже удалили старые серии, то предотвратить повторную закачку старых серий можно, отжав галочку в соответствующих местах при запуске нового торрента. По возможности, желательно не удалять старые серии как можно дольше, чтобы релизер не столько продолжал раздавать старые серии, а смог сконцентрироваться на новых.



Релиз от:

Discussion

Comments 0

Post Your Comment

Torrent Files (Unavailable)

Please check back later to get a list of all files included in this torrent.

Alternative Torrents for 'Операция Дезертир SATRip'.

TORRENT NAMEADDEDSIZESEEDSPEERSHEALTH
6/24/20202.5 GB00