Sherlock Holmes Collection (2009-2011) 1080p BluRay X264 ESub By~Hammer~

Torrent Details


Sherlock Holmes Collection (2009-2011) 1080p BluRay x264  ESub By~Hammer~

NAME
Sherlock Holmes Collection (2009-2011) 1080p BluRay x264 ESub By~Hammer~.torrent
CATEGORY
Movies
INFOHASH
cf042b474f8bb6953afa44dfb284433c37ae1d29
SIZE
12.1 GB in 2 files
ADDED
Uploaded on 24-06-2020 by our crawler pet called "Spidey".
SWARM
0 seeders & 0 peers
RATING
No votes yet.

Please login to vote for this torrent.


Description

Sherlock Holmes Collection (2009-2011) 1080p BluRay x264 {Hindi DD 2.0-Eng DTS 5.1} ESub By~Hammer~





Stay Home Stay Safe From Coronavirus[/b]

Sherlock Holmes (2009) 1080p BluRay x264 {Dual Audio} {Hindi Org DD 2.0-English DTS 5.1} ESub By~Hammer~

General
Format : Matroska
Format version : Version 4 / Version 2
File size : 6.05 GiB
Duration : 2 h 8 min
Overall bit rate : 6 748 kb/s
Movie name : Sherlock Holmes (2009) 1080p BluRay x264 {Dual Audio} {Hindi Org DD 2.0-English DTS 5.1} ESub By~Hammer~
Bit rate : 5 000 kb/s
Width : 1 920 pixels
Height : 1 080 pixels
Display aspect ratio : 16:9
Frame rate mode : Constant
Frame rate : 23.976 (24000/1001) FPS
Title : ~EncodeR~Hammer~
Language : English
Default : Yes
Forced : No

Audio #1
Format : AC-3
Format/Info : Audio Coding 3
Codec ID : A_AC3
Duration : 2 h 8 min
Bit rate mode : Constant
Bit rate : 224 kb/s
Channel(s) : 2 channels
Channel positions : Front: L R
Sampling rate : 48.0 kHz
Frame rate : 31.250 FPS (1536 SPF)
Bit depth : 16 bits
Compression mode : Lossy
Stream size : 206 MiB (3%)
Title :
Language : Hindi
Default : Yes
Forced : No

Audio #2
Format : DTS
Format/Info : Digital Theater Systems
Codec ID : A_DTS
Duration : 2 h 8 min
Bit rate mode : Constant
Bit rate : 1 509 kb/s
Channel(s) : 6 channels
Channel positions : Front: L C R, Side: L R, LFE
Sampling rate : 48.0 kHz
Frame rate : 93.750 FPS (512 SPF)
Bit depth : 24 bits
Compression mode : Lossy
Stream size : 1.35 GiB (22%)
Title : English DTS 5.1 1509 kbps By~Hammer~
Language : English
Default : No
Forced : No

Text
Format : PGS
Muxing mode : zlib
Codec ID : S_HDMV/PGS
Codec ID/Info : Picture based subtitle format used on BDs/HD-DVDs
Duration : 2 h 8 min
Bit rate : 13.7 kb/s
Count of elements : 3020
Stream size : 12.5 MiB (0%)
Title : English PGS
Language : English
Default : Yes
Forced : No


Sherlock Holmes 2 (2011) 1080p BluRay x264 {Dual Audio} {Hindi Org DVD 2.0-English DTS 5.1} ESub By~Hammer~

General
Format : Matroska
Format version : Version 4 / Version 2
File size : 6.09 GiB
Duration : 2 h 8 min
Overall bit rate : 6 774 kb/s
Movie name : Sherlock Holmes 2 (2011) 1080p BluRay x264 {Dual Audio} {Hindi Org DVD 2.0-English DTS 5.1} ESub By~Hammer~
Bit rate : 5 000 kb/s
Width : 1 920 pixels
Height : 800 pixels
Display aspect ratio : 2.40:1
Frame rate mode : Constant
Frame rate : 23.976 (24000/1001) FPS
Title : ~EncodeR~Hammer~
Language : English
Default : Yes
Forced : No

Audio #1
Format : AC-3
Format/Info : Audio Coding 3
Codec ID : A_AC3
Duration : 2 h 8 min
Bit rate mode : Constant
Bit rate : 224 kb/s
Channel(s) : 2 channels
Channel positions : Front: L R
Sampling rate : 48.0 kHz
Frame rate : 31.250 FPS (1536 SPF)
Bit depth : 16 bits
Compression mode : Lossy
Stream size : 206 MiB (3%)
Title :
Language : Hindi
Default : Yes
Forced : Yes

Audio #2
Format : DTS
Format/Info : Digital Theater Systems
Codec ID : A_DTS
Duration : 2 h 8 min
Bit rate mode : Constant
Bit rate : 1 509 kb/s
Channel(s) : 6 channels
Channel positions : Front: L C R, Side: L R, LFE
Sampling rate : 48.0 kHz
Frame rate : 93.750 FPS (512 SPF)
Bit depth : 24 bits
Compression mode : Lossy
Stream size : 1.36 GiB (22%)
Title : English DTS 5.1 1509 kbps By~Hammer~
Language : English
Default : No
Forced : No

Text #1
Format : PGS
Muxing mode : zlib
Codec ID : S_HDMV/PGS
Codec ID/Info : Picture based subtitle format used on BDs/HD-DVDs
Duration : 1 h 59 min
Bit rate : 20.0 kb/s
Count of elements : 2368
Stream size : 17.1 MiB (0%)
Title : English PGS
Language : English
Default : Yes
Forced : No



Discussion

Comments 0

Post Your Comment

Files in this torrent

FILENAMESIZE
Sherlock Holmes (2009) 1080p BluRay x264 {Dual Audio} {Hindi Org DD 2.0-English DTS 5.1} ESub By~Hammer~.mkv6.1 GB
Sherlock Holmes 2 (2011) 1080p BluRay x264 {Dual Audio} {Hindi Org DVD 2.0-English DTS 5.1} ESub By~Hammer~.mkv6.1 GB

Alternative Torrents for 'Sherlock Holmes Collection BluRay ESub ByHammer'.

There are no alternative torrents found.