Christian 2015 WEBRip X264 AAC HORiZON-ArtSubs

Torrent Details


Christian 2015 WEBRip x264 AAC HORiZON-ArtSubs

NAME
Christian 2015 WEBRip x264 AAC HORiZON-ArtSubs.torrent
CATEGORY
Movies
INFOHASH
8e65ad0cc14c63416392d07e070d94a94ed8a903
SIZE
316 MB in 1 file
ADDED
Uploaded on 26-06-2020 by our crawler pet called "Spidey".
SWARM
0 seeders & 0 peers
RATING
No votes yet.

Please login to vote for this torrent.


Description

Release: Christian.2015.WEBRip.x264.AAC.HORiZON-ArtSubs



Subtitle: None

Plot: Shot on a tight budget in Tor Bella Monaca, in the roughest suburbs of Rome, the film is the story of a rogue, a godless pariah living on the fringe of society. He’s just one of many, set apart only by a secret ache. In time that torment will reveal itself to be something more, however: a great source of power that he will be unable to control, and perhaps even fathom.

Complete name: Christian.2015.WEBRip.x264.AAC.HORiZON-ArtSubs.mp4
Format : MPEG-4
Format profile : Base Media / Version 2
Codec ID : mp42 (mp42/mp41/isom/avc1)
File size : 316 MiB
Duration : 12 min 4 s
Overall bit rate mode : Variable
Overall bit rate : 3 661 kb/s
Encoded date : UTC 2015-04-26 10:48:53
Tagged date : UTC 2015-04-26 10:48:53

Video
ID : 1
Format : AVC
Format/Info : Advanced Video Codec
Format profile : [email protected]
Format settings : CABAC / 4 Ref Frames
Format settings, CABAC : Yes
Format settings, Reference : 4 frames
Codec ID : avc1
Codec ID/Info : Advanced Video Coding
Duration : 12 min 4 s
Bit rate : 3 402 kb/s
Width : 1 920 pixels
Height : 810 pixels
Display aspect ratio : 2.40:1
Frame rate mode : Constant
Frame rate : 25.000 FPS
Color space : YUV
Chroma subsampling : 4:2:0
Bit depth : 8 bits
Scan type : Progressive
Bits/(Pixel*Frame) : 0.087
Stream size : 294 MiB (93%)
Writing library : x264 core 146 r16 121396c
Encoding settings : cabac=1 / ref=3 / deblock=1:0:0 / analyse=0x3:0x113 / me=hex / subme=7 / psy=1 / psy_rd=1.00:0.00 / mixed_ref=1 / me_range=16 / chroma_me=1 / trellis=1 / 8x8dct=1 / cqm=0 / deadzone=21,11 / fast_pskip=1 / chroma_qp_offset=-2 / threads=84 / lookahead_threads=6 / sliced_threads=0 / nr=0 / decimate=1 / interlaced=0 / bluray_compat=0 / stitchable=1 / constrained_intra=0 / bframes=3 / b_pyramid=2 / b_adapt=1 / b_bias=0 / direct=1 / weightb=1 / open_gop=0 / weightp=2 / keyint=infinite / keyint_min=25 / scenecut=40 / intra_refresh=0 / rc_lookahead=40 / rc=crf / mbtree=1 / crf=20.0 / qcomp=0.60 / qpmin=5 / qpmax=69 / qpstep=4 / vbv_maxrate=4950 / vbv_bufsize=13500 / crf_max=0.0 / nal_hrd=none / filler=0 / ip_ratio=1.40 / aq=1:1.00
Encoded date : UTC 2015-04-26 10:48:53
Tagged date : UTC 2015-04-26 10:48:53
Color range : Limited
Color primaries : BT.709
Transfer characteristics : BT.709
Matrix coefficients : BT.709
Codec configuration box : avcC

Audio
ID : 2
Format : AAC LC
Format/Info : Advanced Audio Codec Low Complexity
Codec ID : mp4a-40-2
Duration : 12 min 4 s
Bit rate mode : Variable
Bit rate : 256 kb/s
Channel(s) : 2 channels
Channel layout : L R
Sampling rate : 48.0 kHz
Frame rate : 46.875 FPS (1024 SPF)
Compression mode : Lossy
Stream size : 22.1 MiB (7%)
Encoded date : UTC 2015-04-26 10:48:53
Tagged date : UTC 2015-04-26 10:48:53


SCREENSHOTS:



Discussion

Comments 0

Post Your Comment

Files in this torrent

FILENAMESIZE
Christian.2015.WEBRip.x264.AAC.HORiZON-ArtSubs.mp4316.2 MB

Alternative Torrents for 'Christian AAC HORiZONArtSubs'.

TORRENT NAMEADDEDSIZESEEDSPEERSHEALTH
7/24/2020897 MB1637159
7/31/20201.1 GB1363335
7/31/20201.1 GB1189276
8/3/20203.7 GB1108107
7/30/20201009 MB1011405
8/5/2020285 MB865307
7/29/20203.9 GB83239
7/31/20201.9 GB810367
7/30/20201.7 GB793309
8/6/2020204 MB644228
8/4/2020340 MB50194
8/5/2020508 MB486214
Yesterday317 MB447341
8/6/2020290 MB399144
8/1/2020362 MB39415