Satan's Triangle 1975 DVDRip X264 AC3 HORiZON-ArtSubs

Torrent Details

Satan's Triangle 1975 DVDRip x264 AC3 HORiZON-ArtSubs
Satan's Triangle 1975 DVDRip x264 AC3 HORiZON-ArtSubs

NAME
Satan's Triangle 1975 DVDRip x264 AC3 HORiZON-ArtSubs.torrent
CATEGORY
Movies
INFOHASH
977d09dc4953f32396f16a857692ec46cd1f1ab3
SIZE
1.3 GB in 1 file
ADDED
Uploaded on 26-06-2020 by our crawler pet called "Spidey".
SWARM
0 seeders & 0 peers
RATING
No votes yet.

Please login to vote for this torrent.


Description

Release: Satan's.Triangle.1975.DVDRip.x264.AC3.HORiZON-ArtSubs







IMDB: https://www.imdb.com/title/tt0073662



Plot: A US coast guard finds only a woman still alive aboard a shipwreck. She tells her rescuer what happened and soon, they find themselves trapped in a mysterious part of the ocean known as Satan's Triangle.



General

Complete name               : Satan's.Triangle.1975.DVDRip.x264.AC3.HORiZON-ArtSubs.mkv

Format                      : Matroska

Format version              : Version 4

File size                   : 1.31 GiB

Duration                    : 1 h 11 min

Overall bit rate            : 2 628 kb/s

Encoded date                : UTC 2020-06-23 10:58:57

Writing application         : mkvmerge v47.0.0 ('Black Flag') 64-bit

Writing library             : libebml v1.3.10 + libmatroska v1.5.2



Video

ID                          : 1

Format                      : AVC

Format/Info                 : Advanced Video Codec

Format profile              : [email protected]

Format settings             : CABAC / 2 Ref Frames

Format settings, CABAC      : Yes

Format settings, Reference  : 2 frames

Codec ID                    : V_MPEG4/ISO/AVC

Duration                    : 1 h 11 min

Bit rate                    : 2 426 kb/s

Width                       : 720 pixels

Height                      : 576 pixels

Display aspect ratio        : 4:3

Frame rate mode             : Constant

Frame rate                  : 25.000 FPS

Standard                    : PAL

Color space                 : YUV

Chroma subsampling          : 4:2:0

Bit depth                   : 8 bits

Scan type                   : Progressive

Bits/(Pixel*Frame)          : 0.234

Stream size                 : 1.21 GiB (93%)

Writing library             : x264 core 148 r2638

Encoding settings           : cabac=1 / ref=2 / deblock=1:0:0 / analyse=0x1:0x131 / me=hex / subme=7 / psy=1 / psy_rd=1.00:0.00 / mixed_ref=0 / me_range=16 / chroma_me=1 / trellis=1 / 8x8dct=0 / cqm=0 / deadzone=21,11 / fast_pskip=1 / chroma_qp_offset=-2 / threads=3 / lookahead_threads=1 / sliced_threads=0 / nr=0 / decimate=1 / interlaced=0 / bluray_compat=0 / constrained_intra=0 / bframes=3 / b_pyramid=0 / b_adapt=1 / b_bias=0 / direct=3 / weightb=1 / open_gop=0 / weightp=2 / keyint=250 / keyint_min=25 / scenecut=40 / intra_refresh=0 / rc_lookahead=40 / rc=abr / mbtree=1 / bitrate=2426 / ratetol=1.0 / qcomp=0.60 / qpmin=10 / qpmax=69 / qpstep=4 / vbv_maxrate=24000 / vbv_bufsize=24000 / nal_hrd=none / filler=0 / ip_ratio=1.40 / aq=3:1.00

Default                     : Yes

Forced                      : No



Audio

ID                          : 2

Format                      : AC-3

Format/Info                 : Audio Coding 3

Commercial name             : Dolby Digital

Codec ID                    : A_AC3

Duration                    : 1 h 11 min

Bit rate mode               : Constant

Bit rate                    : 192 kb/s

Channel(s)                  : 2 channels

Channel layout              : L R

Sampling rate               : 48.0 kHz

Frame rate                  : 31.250 FPS (1536 SPF)

Compression mode            : Lossy

Stream size                 : 97.7 MiB (7%)

Language                    : English

Service kind                : Complete Main

Default                     : Yes

Forced                      : No



SCREENSHOTS:











Discussion

Comments 0

Post Your Comment

Files in this torrent

FILENAMESIZE
Satan's.Triangle.1975.DVDRip.x264.AC3.HORiZON-ArtSubs.mkv1.3 GB

Alternative Torrents for 'Satan&;s Triangle DVDRip HORiZONArtSubs'.

TORRENT NAMEADDEDSIZESEEDSPEERSHEALTH
6/26/20201.3 GB00
6/1/2020131 MB00
12/1/2019174 MB00
10/21/20191.4 GB00
9/23/20191.4 GB00
9/23/2019779 MB00
9/6/20191.2 GB00
8/2/2019748 MB00
8/2/2019756 MB00
8/2/2019756 MB00
7/22/2019454 kB00
7/9/20194 MB00
6/13/2019245 MB00
5/28/2019621 MB00
3/14/201983 MB00