Moothon (2019) Malayalam HDRip - 720p - X264 - AAC - 1.1GB - ESub - TamilMV

Torrent Details


Moothon (2019) Malayalam HDRip - 720p - x264 - AAC - 1.1GB - ESub - TamilMV

NAME
Moothon (2019) Malayalam HDRip - 720p - x264 - AAC - 1.1GB - ESub - TamilMV.torrent
CATEGORY
Movies
INFOHASH
94c0d9296388fde5895e1453c43c2ce56f6c4df9
SIZE
1.2 GB in 2 files
ADDED
Uploaded on 26-06-2020 by our crawler pet called "Spidey".
SWARM
0 seeders & 0 peers
RATING
No votes yet.

Please login to vote for this torrent.


Description

Moothon (2019) Malayalam HDRip - 720p - x264 - AAC - 1.1GB - ESub - TamilMV







SCREENSHOTS :













Quote:Media Info :



Video

ID                          : 1

Format                      : AVC

Format/Info                 : Advanced Video Codec

Format profile              : [email protected]

Format settings             : CABAC / 4 Ref Frames

Format settings, CABAC      : Yes

Format settings, Reference  : 4 frames

Codec ID                    : V_MPEG4/ISO/AVC

Duration                    : 1 h 57 min

Bit rate                    : 1 306 kb/s

Width                       : 1 280 pixels

Height                      : 536 pixels

Display aspect ratio        : 2.40:1

Frame rate mode             : Constant

Frame rate                  : 24.000 FPS

Color space                 : YUV

Chroma subsampling          : 4:2:0

Bit depth                   : 8 bits

Scan type                   : Progressive

Bits/(Pixel*Frame)          : 0.079

Stream size                 : 1.06 GiB (91%)

Writing library             : x264 core 157 r2935 545de2f

Language                    : Malayalam

Default                     : Yes

Forced                      : No



Audio

ID                          : 2

Format                      : AAC LC

Format/Info                 : Advanced Audio Codec Low Complexity

Codec ID                    : A_AAC-2

Duration                    : 1 h 57 min

Bit rate                    : 128 kb/s

Channel(s)                  : 2 channels

Channel layout              : L R

Sampling rate               : 48.0 kHz

Frame rate                  : 46.875 FPS (1024 SPF)

Compression mode            : Lossy

Stream size                 : 108 MiB (9%)

Language                    : Malayalam

Default                     : Yes

Forced                      : No



Text

ID                          : 3

Format                      : UTF-8

Codec ID                    : S_TEXT/UTF8

Codec ID/Info               : UTF-8 Plain Text

Duration                    : 1 h 53 min

Bit rate                    : 28 b/s

Count of elements           : 930

Stream size                 : 23.8 KiB (0%)

Language                    : English

Default                     : Yes

Forced                      : No

Discussion

Comments 0

Post Your Comment

Files in this torrent

FILENAMESIZE
A TamilMV Release.txt283 B
Moothon (2019) Malayalam HDRip - 720p - x264 - AAC - 1.1GB - ESub - TamilMV.mkv1.2 GB

Alternative Torrents for 'Moothon Malayalam AAC ESub TamilMV'.

TORRENT NAMEADDEDSIZESEEDSPEERSHEALTH
6/26/20201.2 GB00