Unlock (2020) Zee 5 Hindi 1080p WEBRip AC3 Eng Sub

Torrent Details

Unlock (2020) Zee 5 Hindi 1080p WEBRip AC3   Eng Sub
Unlock (2020) Zee 5 Hindi 1080p WEBRip AC3   Eng Sub

NAME
Unlock (2020) Zee 5 Hindi 1080p WEBRip AC3 Eng Sub.torrent
CATEGORY
Movies
INFOHASH
f0955a5576c10eb25241881f61561293e7718986
SIZE
1.1 GB in 1 file
ADDED
Uploaded on 27-06-2020 by our crawler pet called "Spidey".
SWARM
0 seeders & 0 peers
RATING
No votes yet.

Please login to vote for this torrent.


Description

Unlock (2020):
When Suhani realises that she is about to lose her love Amar, she decides to download an app
which is believed to grant a person's most sinister wishes.
Get ready for a spine-chilling ride with this gripping thriller only on ZEE5.

Cast:
Kushal Tandon,Hina Khan,Aditi Arya

Director
Debatma Mandal.

Format : Matroska
Format version : Version 4
File size : 1.06 GiB
Duration : 58 min 43 s
Overall bit rate : 2 575 kb/s

Video
ID : 1
Format : AVC
Format/Info : Advanced Video Codec
Format profile : [email protected]
Format settings : CABAC / 4 Ref Frames
Format settings, CABAC : Yes
Format settings, Reference : 4 frames
Codec ID : V_MPEG4/ISO/AVC
Duration : 58 min 43 s
Bit rate : 2 140 kb/s
Width : 1 920 pixels
Height : 1 080 pixels
Display aspect ratio : 1.897
Frame rate mode : Constant
Frame rate : 25.000 FPS
Color space : YUV
Chroma subsampling : 4:2:0
Bit depth : 8 bits
Scan type : Progressive
Bits/(Pixel*Frame) : 0.041
Stream size : 893 MiB (83%)
Writing library : x264 core

Audio
ID : 2
Format : AC-3
Format/Info : Audio Coding 3
Commercial name : Dolby Digital
Codec ID : A_AC3
Duration : 58 min 43 s
Bit rate mode : Constant
Bit rate : 448 kb/s
Channel(s) : 6 channels
Channel layout : L R C LFE Ls Rs
Sampling rate : 48.0 kHz
Frame rate : 31.250 FPS (1536 SPF)
Compression mode : Lossy
Stream size : 188 MiB (17%)
Language : Hindi
Service kind : Complete Main
Default : Yes
Forced : No

Text
ID : 3
Format : UTF-8
Codec ID : S_TEXT/UTF8
Codec ID/Info : UTF-8 Plain Text
Duration : 56 min 46 s
Bit rate : 32 b/s
Count of elements : 497
Stream size : 13.6 KiB (0%)
Language : English
Default : Yes
Forced : No

Discussion

Comments 0

Post Your Comment

Files in this torrent

FILENAMESIZE
Unlock (2020) Zee 5 Hindi 1080p WEBRip AC3 . Eng Sub.mkv1.1 GB

Alternative Torrents for 'Unlock Zee Hindi Eng Sub'.

TORRENT NAMEADDEDSIZESEEDSPEERSHEALTH
6/27/20201.1 GB00