Trolls World Tour (2020) [2160p] [HDR] (bluray) [WMAN-LorD]

Torrent Details

Trolls World Tour (2020) [2160p] [HDR] (bluray) [WMAN-LorD]
Trolls World Tour (2020) [2160p] [HDR] (bluray) [WMAN-LorD]

NAME
Trolls World Tour (2020) [2160p] [HDR] (bluray) [WMAN-LorD].torrent
CATEGORY
Movies
INFOHASH
4c70ad8a000e15d93ca5ccfc13e90490e2fc6c7e
SIZE
3.4 GB in 2 files
ADDED
Uploaded on 28-06-2020 by our crawler pet called "Spidey".
SWARM
0 seeders & 0 peers
RATING
No votes yet.

Please login to vote for this torrent.


Description

Release info:

>Encoded by: [WMAN-LorD]

>HDR working!

>Source: Blu-ray Original 4k HDR























[code]

General

Unique ID                   : 49205882456575971441885082775118364574 (0x2504B54FA15ACA4D9C670B735AE33F9E)

Complete name               : Trolls.World.Tour.2020.2160p.UHD.HDR.BluRay.x265.10bit.DD5.1.[WMAN-LorD].mkv

Format                      : Matroska

Format version              : Version 4

File size                   : 3.43 GiB

Duration                    : 1 h 30 min

Overall bit rate            : 5 416 kb/s

Movie name                  : Trolls World Tour (2020) [WMAN-LorD]

Encoded date                : UTC 2020-06-28 02:49:26

Writing application         : mkvmerge v47.0.0 ('Black Flag') 64-bit

Writing library             : libebml v1.3.10 + libmatroska v1.5.2

Cover                       : Yes

Attachments                 : cover.jpg

IMDB                        : tt6587640

TMDB                        : movie/446893



Video

ID                          : 1

Format                      : HEVC

Format/Info                 : High Efficiency Video Coding

Format profile              : Main [email protected]@Main

HDR format                  : SMPTE ST 2086, HDR10 compatible

Codec ID                    : V_MPEGH/ISO/HEVC

Duration                    : 1 h 30 min

Bit rate                    : 4 894 kb/s

Width                       : 3 840 pixels

Height                      : 2 160 pixels

Display aspect ratio        : 16:9

Frame rate mode             : Constant

Frame rate                  : 23.976 (24000/1001) FPS

Color space                 : YUV

Chroma subsampling          : 4:2:0

Bit depth                   : 10 bits

Bits/(Pixel*Frame)          : 0.025

Stream size                 : 3.10 GiB (90%)

Title                       : [WMAN-LorD]

Language                    : English

Default                     : Yes

Forced                      : No

Color range                 : Limited

Color primaries             : BT.2020

Transfer characteristics    : PQ

Matrix coefficients         : BT.2020 non-constant

Mastering display color pri : Display P3

Mastering display luminance : min: 0.0010 cd/m2, max: 1000 cd/m2

Maximum Content Light Level : 1000 cd/m2

Maximum Frame-Average Light : 462 cd/m2



Audio

ID                          : 2

Format                      : AC-3

Format/Info                 : Audio Coding 3

Commercial name             : Dolby Digital

Codec ID                    : A_AC3

Duration                    : 1 h 30 min

Bit rate mode               : Constant

Bit rate                    : 448 kb/s

Channel(s)                  : 6 channels

Channel layout              : L R C LFE Ls Rs

Sampling rate               : 48.0 kHz

Frame rate                  : 31.250 FPS (1536 SPF)

Compression mode            : Lossy

Stream size                 : 291 MiB (8%)

Title                       : Compatibility Track / Dolby Digital Audio / 5.1 / 48 kHz / 640 kbps

Language                    : English

Service kind                : Complete Main

Default                     : No

Forced                      : No



Text #1

ID                          : 3

Format                      : UTF-8

Codec ID                    : S_TEXT/UTF8

Codec ID/Info               : UTF-8 Plain Text

Duration                    : 1 h 23 min

Bit rate                    : 72 b/s

Count of elements           : 1387

Stream size                 : 44.5 KiB (0%)

Title                       : Portuguese Brazil

Language                    : Portuguese

Default                     : Yes

Forced                      : No



Text #2

ID                          : 4

Format                      : PGS

Muxing mode                 : zlib

Codec ID                    : S_HDMV/PGS

Codec ID/Info               : Picture based subtitle format used on BDs/HD-DVDs

Duration                    : 1 h 24 min

Bit rate                    : 52.3 kb/s

Count of elements           : 3034

Stream size                 : 31.5 MiB (1%)

Title                       : English (SDH)

Language                    : English

Default                     : No

Forced                      : No



Text #3

ID                          : 5

Format                      : PGS

Muxing mode                 : zlib

Codec ID                    : S_HDMV/PGS

Codec ID/Info               : Picture based subtitle format used on BDs/HD-DVDs

Duration                    : 1 h 29 min

Bit rate                    : 46.6 kb/s

Count of elements           : 2712

Stream size                 : 30.0 MiB (1%)

Title                       : French

Language                    : French

Default                     : No

Forced                      : No



Text #4

ID                          : 6

Format                      : PGS

Muxing mode                 : zlib

Codec ID                    : S_HDMV/PGS

Codec ID/Info               : Picture based subtitle format used on BDs/HD-DVDs

Duration                    : 1 h 29 min

Bit rate                    : 42.4 kb/s

Count of elements           : 2772

Stream size                 : 27.3 MiB (1%)

Title                       : Spanish (Latin American)

Language                    : Spanish

Default                     : No

Forced                      : No



Menu

00:00:00.000                : en:Chapter 1

00:05:12.771                : en:Chapter 2

00:08:44.899                : en:Chapter 3

00:12:51.729                : en:Chapter 4

00:18:25.813                : en:Chapter 5

00:22:58.836                : en:Chapter 6

00:27:36.405                : en:Chapter 7

00:30:34.583                : en:Chapter 8

00:34:23.353                : en:Chapter 9

00:38:27.138                : en:Chapter 10

00:41:13.096                : en:Chapter 11

00:46:19.276                : en:Chapter 12

00:50:12.426                : en:Chapter 13

00:54:22.926                : en:Chapter 14

00:59:22.726                : en:Chapter 15

01:03:39.274                : en:Chapter 16

01:06:25.523                : en:Chapter 17

01:10:18.297                : en:Chapter 18

01:15:41.829                : en:Chapter 19

01:21:19.917                : en:Chapter 20







[/code]





Discussion

Comments 0

Post Your Comment

Files in this torrent

FILENAMESIZE
Trolls.World.Tour.2020.2160p.UHD.HDR.BluRay.x265.10bit.DD5.1.[WMAN-LorD].mkv3.4 GB
[TGx]Downloaded from torrentgalaxy.to .txt585 B

Alternative Torrents for 'Trolls World Tour p HDR bluray WMANLorD'.

TORRENT NAMEADDEDSIZESEEDSPEERSHEALTH
8/2/2020920 MB1192174
7/30/20201.8 GB931110
7/31/20201.9 GB810367
Today1.1 GB687732
8/2/20203.8 GB636309
Today2.3 GB623544
8/1/20201 GB589123
7/9/20174.6 GB488193
8/1/20202 GB46922
8/1/20201.7 GB44916
7/25/20201012 MB435108
Yesterday1.5 GB424366
8/3/2020696 MB38459
7/30/2020864 MB38275
7/31/2020798 MB37547