Dark Season 03 Multi (Eng+Ger) (1080p X265 10bit) - [Musafirboy]

Torrent Details

Dark Season 03 Multi (Eng+Ger) (1080p x265 10bit) - [Musafirboy]
Dark Season 03 Multi (Eng+Ger) (1080p x265 10bit) - [Musafirboy]

NAME
Dark Season 03 Multi (Eng+Ger) (1080p x265 10bit) - [Musafirboy].torrent
CATEGORY
Television
INFOHASH
a61fcf4d794459911bbbb716de8a3de52fff8153
SIZE
5.8 GB in 9 files
ADDED
Uploaded on 28-06-2020 by our crawler pet called "Spidey".
SWARM
0 seeders & 0 peers
RATING
No votes yet.

Please login to vote for this torrent.


Description









Dark (2020) - Complete Season 03

Multi Audio (English+German)

















Enjoy Musafirboy Style Color Grade





































Source Information

Dark.S03.1080p.NF.WEB-DL.ENG-Multi.DDP5.1.x264-Telly (33.8 GB)







Media Information

General

Complete name : Dark.S03E01.Multi.NF.WEBRip.1080p.HEVC.10bit-[Musafirboy].mkv

Format : Matroska

Format version : Version 4

File size : 731 MiB

Duration : 1 h 2 min

Overall bit rate : 1 646 kb/s

Encoded date : UTC 2020-06-28 05:12:33



Video

ID : 1

Format : HEVC

Format/Info : High Efficiency Video Coding

Format profile : Main [email protected]@Main

Codec ID : V_MPEGH/ISO/HEVC

Duration : 1 h 2 min

Bit rate : 1 200 kb/s

Width : 1 920 pixels

Height : 952 pixels

Display aspect ratio : 2.017

Frame rate mode : Constant

Frame rate : 24.000 FPS

Color space : YUV

Chroma subsampling : 4:2:0

Bit depth : 10 bits

Bits/(Pixel*Frame) : 0.027

Stream size : 533 MiB (73%)

Writing library : x265 3.2+9-971180b100f8:[Windows][GCC 9.2.0][64 bit] 10bit

Encoding settings : cpuid=1111039 / frame-threads=4 / numa-pools=16 / wpp / no-pmode / no-pme / no-psnr / no-ssim / log-level=2 / input-csp=1 / input-res=1920x952 / interlace=0 / total-frames=89432 / level-idc=50 / high-tier=1 / uhd-bd=0 / ref=3 / no-allow-non-conformance / no-repeat-headers / annexb / no-aud / no-hrd / info / hash=0 / no-temporal-layers / open-gop / min-keyint=24 / keyint=250 / gop-lookahead=0 / bframes=4 / b-adapt=2 / b-pyramid / bframe-bias=0 / rc-lookahead=20 / lookahead-slices=6 / scenecut=40 / radl=0 / no-splice / no-intra-refresh / ctu=64 / min-cu-size=8 / no-rect / no-amp / max-tu-size=32 / tu-inter-depth=1 / tu-intra-depth=1 / limit-tu=0 / rdoq-level=0 / dynamic-rd=0.00 / no-ssim-rd / signhide / no-tskip / nr-intra=0 / nr-inter=0 / no-constrained-intra / strong-intra-smoothing / max-merge=3 / limit-refs=1 / no-limit-modes / me=1 / subme=5 / merange=57 / temporal-mvp / no-frame-dup / no-hme / weightp / no-weightb / no-analyze-src-pics / deblock=0:0 / no-sao / no-sao-non-deblock / rd=3 / selective-sao=0 / early-skip / no-rskip / no-fast-intra / no-tskip-fast / no-cu-lossless / b-intra / no-splitrd-skip / rdpenalty=0 / psy-rd=4.00 / psy-rdoq=0.00 / no-rd-refine / no-lossless / cbqpoffs=0 / crqpoffs=0 / rc=abr / bitrate=1200 / qcomp=0.60 / qpstep=1 / stats-write=0 / stats-read=2 / cplxblur=20.0 / qblur=0.5 / ipratio=1.10 / pbratio=1.00 / aq-mode=0 / aq-strength=0.00 / no-cutree / zone-count=0 / no-strict-cbr / qg-size=64 / rc-grain / qpmax=69 / qpmin=0 / const-vbv / sar=0 / overscan=0 / videoformat=5 / range=0 / colorprim=1 / transfer=1 / colormatrix=1 / chromaloc=0 / display-window=0 / cll=0,0 / min-luma=0 / max-luma=1023 / log2-max-poc-lsb=8 / vui-timing-info / vui-hrd-info / slices=1 / no-opt-qp-pps / no-opt-ref-list-length-pps / no-multi-pass-opt-rps / scenecut-bias=0.05 / no-opt-cu-delta-qp / no-aq-motion / no-hdr / no-hdr-opt / no-dhdr10-opt / no-idr-recovery-sei / analysis-reuse-level=5 / scale-factor=0 / refine-intra=0 / refine-inter=0 / refine-mv=1 / refine-ctu-distortion=0 / no-limit-sao / ctu-info=0 / no-lowpass-dct / refine-analysis-type=0 / copy-pic=1 / max-ausize-factor=1.0 / no-dynamic-refine / no-single-sei / no-hevc-aq / no-svt / no-field / qp-adaptation-range=1.00

Default : Yes

Forced : No

Color range : Limited

Color primaries : BT.709

Transfer characteristics : BT.709

Matrix coefficients : BT.709



Audio #1

ID : 2

Format : AAC LC

Format/Info : Advanced Audio Codec Low Complexity

Codec ID : A_AAC-2

Duration : 1 h 2 min

Bit rate : 222 kb/s

Channel(s) : 6 channels

Channel layout : C L R Ls Rs LFE

Sampling rate : 48.0 kHz

Frame rate : 46.875 FPS (1024 SPF)

Compression mode : Lossy

Stream size : 98.4 MiB (13%)

Language : English

Default : Yes

Forced : No



Audio #2

ID : 3

Format : AAC LC

Format/Info : Advanced Audio Codec Low Complexity

Codec ID : A_AAC-2

Duration : 1 h 2 min

Bit rate : 222 kb/s

Channel(s) : 6 channels

Channel layout : C L R Ls Rs LFE

Sampling rate : 48.0 kHz

Frame rate : 46.875 FPS (1024 SPF)

Compression mode : Lossy

Stream size : 98.4 MiB (13%)

Language : German

Default : No

Forced : No



Subtitle #1

ID : 4

Format : UTF-8

Codec ID : S_TEXT/UTF8

Codec ID/Info : UTF-8 Plain Text

Duration : 1 h 1 min

Bit rate : 26 b/s

Count of elements : 449

Stream size : 11.8 KiB (0%)

Language : English

Default : Yes

Forced : No



Subtitle #2

ID : 5

Format : UTF-8

Codec ID : S_TEXT/UTF8

Codec ID/Info : UTF-8 Plain Text

Duration : 57 min 1 s

Bit rate : 51 b/s

Count of elements : 568

Stream size : 21.6 KiB (0%)

Language : German

Default : No

Forced : No

Discussion

Comments 0

Post Your Comment

Files in this torrent

FILENAMESIZE
Dark.S03E01.Multi.NF.WEBRip.1080p.HEVC.10bit-[Musafirboy].mkv731.4 MB
Dark.S03E02.Multi.NF.WEBRip.1080p.HEVC.10bit-[Musafirboy].mkv706 MB
Dark.S03E03.Multi.NF.WEBRip.1080p.HEVC.10bit-[Musafirboy].mkv667.7 MB
Dark.S03E04.Multi.NF.WEBRip.1080p.HEVC.10bit-[Musafirboy].mkv759.1 MB
Dark.S03E05.Multi.NF.WEBRip.1080p.HEVC.10bit-[Musafirboy].mkv754.6 MB
Dark.S03E06.Multi.NF.WEBRip.1080p.HEVC.10bit-[Musafirboy].mkv689.6 MB
Dark.S03E07.Multi.NF.WEBRip.1080p.HEVC.10bit-[Musafirboy].mkv818.6 MB
Dark.S03E08.Multi.NF.WEBRip.1080p.HEVC.10bit-[Musafirboy].mkv861.7 MB
Encoded by Musafirboy.txt397 B

Alternative Torrents for 'Dark Season Multi EngGer bit Musafirboy'.

TORRENT NAMEADDEDSIZESEEDSPEERSHEALTH
8/3/2020797 MB60184003
8/12/2020276 MB907319
8/2/20203.8 GB549279
8/28/20174.3 GB494152
7/9/20174.6 GB459151
8/12/2020599 MB382113
8/1/20208.1 GB256252
8/5/2020285 MB2408
8/12/20201.5 GB22652
8/11/2020796 MB203139
Yesterday3.5 GB17042
8/11/20207.6 GB15819
8/11/2020805 MB15541
8/11/20201.3 GB14776
8/12/20201.5 GB142383