Crying Freeman 1995 BDREMUX 2160p HDR SeleZen

Torrent Details

Crying Freeman 1995 BDREMUX 2160p HDR<span style=color:#fc9c6d> seleZen</span>
Crying Freeman 1995 BDREMUX 2160p HDR<span style=color:#fc9c6d> seleZen</span>

NAME
Crying Freeman 1995 BDREMUX 2160p HDR seleZen.torrent
CATEGORY
Movies
INFOHASH
41c8dec1f182eab6064caf6a2d2e1a0d79692708
SIZE
53.8 GB in 1 file
ADDED
Uploaded on 28-06-2020 by our crawler pet called "Spidey".
SWARM
0 seeders & 0 peers
RATING
No votes yet.

Please login to vote for this torrent.


Description

Информация о фильме

Название: Плачущий убийца

Оригинальное название: Crying Freeman

Год выхода: 1995

Жанр: Боевик, триллер, криминал, экранизация

Режиссер: Кристоф Ганс

В ролях: Марк Дакаскос, Джули Кондра, Рей Дон Чон, Байрон Манн, Масая Като, Чеки Карио, Мако, Кеван Охтци, Дэбби Подовски, Мюррэй Лоури







О фильме: Молодого художника Йо похищают и «перепрограммируют» в «Освободителя» — изощренного элитного убийцу, обладающего безграничными, почти фантастическими возможностями, способного ликвидировать даже главарей японской якудзы, главных противников его повелителей, Сынов Дракона. Красавица Эму оказывается случайной свидетельницей одного из убийств, совершенных Йо. Традиция «убийц — освободителей» требует, чтобы она погибла от его руки. Вместо этого, они влюбляются друг в друга и начинают одиссею страсти и насилия.



Страна: Канада, Франция, Япония, США

Студия: August Entertainment, Crying Freeman Productions, Davis-Films

Продолжительность: 01:41:56

Перевод(ы):

#1: Профессиональный многоголосый | R5

#2: Профессиональный двухголосый | REN-TV

#3: Профессиональный многоголосый | Нота / Россия

#4: Авторский | Андрей Гаврилов

#5: Авторский | Евгений Гаевский



Качество: BDRemux 2160p

Видео: 3840x2160 at 23.976 fps, MPEG-H HEVC HDR Video, 69600 kbps avg

Аудио #01: 48 kHz, DTS, 5.1, 1510 Kbps | R5 | RUS |

Аудио #02: 48 kHz, AC3, 2.0, 192 Kbps | REN-TV | RUS |

Аудио #03: 48 kHz, AC3, 2.0, 192 Kbps | Нота / Россия | RUS |

Аудио #04: 48 kHz, AC3, 2.0, 192 Kbps | Андрей Гаврилов | RUS |

Аудио #05: 48 kHz, DTS, 5.1, 1510 Kbps | Евгений Гаевский | RUS |

Аудио #06: 48 kHz, AC3, 2.0, 192 Kbps | Многоголосый закадровый, НТН | UKR |

Аудио #07: 48 kHz, DTS-HD MA, 5.1, 2140 Kbps | Оригинал | ENG |

Субтитры: Русские (Full), английские







MIGeneral

Unique ID : 22897344823664428087088757252084290281 (0x1139DE42A2D4A39A80971A75A83552E9)

Complete name : E:Video111Crying.Freeman.1995.BDREMUX.2160p.HDR.seleZen.mkv

Format : Matroska

Format version : Version 4

File size : 53.8 GiB

Duration : 1 h 41 min

Overall bit rate mode : Variable

Overall bit rate : 75.5 Mb/s

Movie name : Crying Freeman 1995 from селезень

Encoded date : UTC 2020-06-28 09:41:14

Writing application : mkvmerge v40.0.0 ('Old Town Road + Pony') 64-bit

Writing library : libebml v1.3.9 + libmatroska v1.5.2



Video

ID : 1

Format : HEVC

Format/Info : High Efficiency Video Coding

Format profile : Main [email protected]@High

HDR format : SMPTE ST 2086, HDR10 compatible

Codec ID : V_MPEGH/ISO/HEVC

Duration : 1 h 41 min

Bit rate : 69.6 Mb/s

Width : 3 840 pixels

Height : 2 160 pixels

Display aspect ratio : 16:9

Frame rate mode : Constant

Frame rate : 23.976 (24000/1001) FPS

Color space : YUV

Chroma subsampling : 4:2:0 (Type 2)

Bit depth : 10 bits

Bits/(Pixel*Frame) : 0.350

Stream size : 49.6 GiB (92%)

Language : English

Default : Yes

Forced : No

Color range : Limited

Color primaries : BT.2020

Transfer characteristics : PQ

Matrix coefficients : BT.2020 non-constant

Mastering display color primaries : Display P3

Mastering display luminance : min: 0.0001 cd/m2, max: 1000 cd/m2

Maximum Content Light Level : 1000 cd/m2

Maximum Frame-Average Light Level : 400 cd/m2



Audio #1

ID : 2

Format : DTS

Format/Info : Digital Theater Systems

Codec ID : A_DTS

Duration : 1 h 41 min

Bit rate mode : Constant

Bit rate : 1 509 kb/s

Channel(s) : 6 channels

Channel layout : C L R Ls Rs LFE

Sampling rate : 48.0 kHz

Frame rate : 93.750 FPS (512 SPF)

Bit depth : 16 bits

Compression mode : Lossy

Stream size : 1.07 GiB (2%)

Title : Двухголосый закадровый, R5

Language : Russian

Default : Yes

Forced : No



Audio #2

ID : 3

Format : AC-3

Format/Info : Audio Coding 3

Commercial name : Dolby Digital

Codec ID : A_AC3

Duration : 1 h 41 min

Bit rate mode : Constant

Bit rate : 192 kb/s

Channel(s) : 2 channels

Channel layout : L R

Sampling rate : 48.0 kHz

Frame rate : 31.250 FPS (1536 SPF)

Compression mode : Lossy

Stream size : 140 MiB (0%)

Title : Двухголосый закадровый, REN-TV

Language : Russian

Service kind : Complete Main

Default : No

Forced : No



Audio #3

ID : 4

Format : AC-3

Format/Info : Audio Coding 3

Commercial name : Dolby Digital

Codec ID : A_AC3

Duration : 1 h 41 min

Bit rate mode : Constant

Bit rate : 192 kb/s

Channel(s) : 2 channels

Channel layout : L R

Sampling rate : 48.0 kHz

Frame rate : 31.250 FPS (1536 SPF)

Compression mode : Lossy

Stream size : 140 MiB (0%)

Title : Многоголосый закадровый, Нота/Россия

Language : Russian

Service kind : Complete Main

Default : No

Forced : No



Audio #4

ID : 5

Format : AC-3

Format/Info : Audio Coding 3

Commercial name : Dolby Digital

Codec ID : A_AC3

Duration : 1 h 41 min

Bit rate mode : Constant

Bit rate : 192 kb/s

Channel(s) : 2 channels

Channel layout : L R

Sampling rate : 48.0 kHz

Frame rate : 31.250 FPS (1536 SPF)

Compression mode : Lossy

Stream size : 140 MiB (0%)

Title : Одноголосый закадровый, А.Гаврилов

Language : Russian

Service kind : Complete Main

Default : No

Forced : No



Audio #5

ID : 6

Format : DTS

Format/Info : Digital Theater Systems

Codec ID : A_DTS

Duration : 1 h 41 min

Bit rate mode : Constant

Bit rate : 1 509 kb/s

Channel(s) : 6 channels

Channel layout : C L R Ls Rs LFE

Sampling rate : 48.0 kHz

Frame rate : 93.750 FPS (512 SPF)

Bit depth : 16 bits

Compression mode : Lossy

Stream size : 1.07 GiB (2%)

Title : Одноголосый закадровый, Е.Гаевский

Language : Russian

Default : No

Forced : No



Audio #6

ID : 7

Format : AC-3

Format/Info : Audio Coding 3

Commercial name : Dolby Digital

Codec ID : A_AC3

Duration : 1 h 41 min

Bit rate mode : Constant

Bit rate : 192 kb/s

Channel(s) : 2 channels

Channel layout : L R

Sampling rate : 48.0 kHz

Frame rate : 31.250 FPS (1536 SPF)

Compression mode : Lossy

Stream size : 140 MiB (0%)

Title : Многоголосый закадровый, НТН

Language : Ukrainian

Service kind : Complete Main

Default : No

Forced : No



Audio #7

ID : 8

Format : DTS XLL

Format/Info : Digital Theater Systems

Commercial name : DTS-HD Master Audio

Codec ID : A_DTS

Duration : 1 h 41 min

Bit rate mode : Variable

Bit rate : 2 140 kb/s

Channel(s) : 6 channels

Channel layout : C L R Ls Rs LFE

Sampling rate : 48.0 kHz

Frame rate : 93.750 FPS (512 SPF)

Bit depth : 16 bits

Compression mode : Lossless

Stream size : 1.52 GiB (3%)

Title : Original

Language : English

Default : No

Forced : No



Text #1

ID : 9

Format : UTF-8

Codec ID : S_TEXT/UTF8

Codec ID/Info : UTF-8 Plain Text

Duration : 1 h 36 min

Bit rate : 43 b/s

Count of elements : 683

Stream size : 30.8 KiB (0%)

Title : Full

Language : Russian

Default : No

Forced : No



Text #2

ID : 10

Format : UTF-8

Codec ID : S_TEXT/UTF8

Codec ID/Info : UTF-8 Plain Text

Duration : 1 h 37 min

Bit rate : 28 b/s

Count of elements : 636

Stream size : 20.6 KiB (0%)

Title : Full

Language : English

Default : No

Forced : No



Text #3

ID : 11

Format : UTF-8

Codec ID : S_TEXT/UTF8

Codec ID/Info : UTF-8 Plain Text

Duration : 1 h 37 min

Bit rate : 31 b/s

Count of elements : 774

Stream size : 22.7 KiB (0%)

Title : SDH

Language : English

Default : No

Forced : No



Menu

00:00:00.000 : en:Chapter 01

00:03:34.381 : en:Chapter 02

00:08:30.802 : en:Chapter 03

00:15:55.538 : en:Chapter 04

00:20:15.214 : en:Chapter 05

00:27:45.539 : en:Chapter 06

00:33:40.894 : en:Chapter 07

00:40:27.759 : en:Chapter 08

00:45:49.705 : en:Chapter 09

00:48:47.383 : en:Chapter 10

00:56:31.388 : en:Chapter 11

01:02:18.276 : en:Chapter 12

01:07:47.480 : en:Chapter 13

01:14:47.441 : en:Chapter 14

01:20:24.069 : en:Chapter 15

01:25:42.679 : en:Chapter 16

01:29:56.141 : en:Chapter 17

01:37:33.389 : en:Chapter 18



Релиз от:



Discussion

Comments 0

Post Your Comment

Files in this torrent

FILENAMESIZE
Crying.Freeman.1995.BDREMUX.2160p.HDR.seleZen.mkv53.8 GB

Alternative Torrents for 'Crying Freeman HDR'.

TORRENT NAMEADDEDSIZESEEDSPEERSHEALTH
6/28/202013.3 GB00
6/28/202053.8 GB00