13 Reasons Why (2017) S04 REPACK (4kto1080p NF Webrip X265 10bit EAC3 5.1 - Ainz)[TAoE]

Torrent Details

13 Reasons Why (2017) S04 REPACK (4kto1080p NF Webrip x265 10bit EAC3 5.1 - Ainz)<span style=color:#fc9c6d>[TAoE]</span>
13 Reasons Why (2017) S04 REPACK (4kto1080p NF Webrip x265 10bit EAC3 5.1 - Ainz)<span style=color:#fc9c6d>[TAoE]</span>

NAME
13 Reasons Why (2017) S04 REPACK (4kto1080p NF Webrip x265 10bit EAC3 5.1 - Ainz)[TAoE].torrent
CATEGORY
Television
INFOHASH
09f608fc7b76a86d6b0fbb3253dc7df1627f6b0b
SIZE
13 GB in 10 files
ADDED
Uploaded on 01-07-2020 by our crawler pet called "Spidey".
SWARM
0 seeders & 0 peers
RATING
No votes yet.

Please login to vote for this torrent.


Description



Hello everyone,

We are TAoE, a small team of passionate encoders who love encoding. We try our best to provide you with high quality releases.



Requests for movies and shows are welcome.

We have a form for encode requests which can be found here

Encode requests form

submit your request and it will be added to our encoding request list

You can view our encoding request list here

Encode requests list





When or if we encode it will depend on if we can obtain a good source to encode with and

if one of the TAoE encoders chooses to encode it. Unfortunately we are not able to encode everything,

new members are welcome as that helps us encode more content!



If you would like to join TAoE submit your request here!

TAoE member applications form









13 Reasons Why (2017) IMDB

































REPACK issued for episode 04 and 05, some issues during playback





Synopsis



Follows teenager Clay Jensen, in his quest to uncover the story behind his classmate and crush, Hannah, and her decision to end her life.





Media Information



General

Unique ID                                : 317246761265020609567558293961537979448 (0xEEAB80F451BFE179543FF265BED38438)

Complete name                            : 13 Reasons Why (2017) S04E01 Winter Break (4kto1080p NF Webrip x265 10bit EAC3 5.1 - Ainz)[TAoE].mkv

Format                                   : Matroska

Format version                           : Version 4

File size                                : 1.26 GiB

Duration                                 : 58 min 56 s

Overall bit rate                         : 3 049 kb/s

Writing application                      : Lavf58.29.100

Writing library                          : Lavf58.29.100

ErrorDetectionType                       : Per level 1



Video

ID                                       : 1

Format                                   : HEVC

Format/Info                              : High Efficiency Video Coding

Format profile                           : Main [email protected]@Main

Codec ID                                 : V_MPEGH/ISO/HEVC

Duration                                 : 58 min 56 s

Bit rate                                 : 2 402 kb/s

Width                                    : 1 920 pixels

Height                                   : 1 080 pixels

Display aspect ratio                     : 2.222

Frame rate mode                          : Constant

Frame rate                               : 23.976 (24000/1001) FPS

Color space                              : YUV

Chroma subsampling                       : 4:2:0

Bit depth                                : 10 bits

Bits/(Pixel*Frame)                       : 0.048

Stream size                              : 1 013 MiB (79%)

Title                                    : Encoded by Ainz for TAoE using Shinguru V1.2

Writing library                          : x265 3.2+35-acc5d16999e2:[Windows][GCC 9.2.1][64 bit] 10bit

Encoding settings                        : cpuid=1111039 / frame-threads=4 / numa-pools=24 / wpp / no-pmode / no-pme / no-psnr / no-ssim / log-level=2 / input-csp=1 / input-res=1920x1080 / interlace=0 / total-frames=0 / level-idc=0 / high-tier=1 / uhd-bd=0 / ref=4 / no-allow-non-conformance / no-repeat-headers / annexb / no-aud / no-hrd / info / hash=0 / no-temporal-layers / open-gop / min-keyint=23 / keyint=250 / gop-lookahead=0 / bframes=8 / b-adapt=2 / b-pyramid / bframe-bias=0 / rc-lookahead=80 / lookahead-slices=4 / scenecut=40 / hist-scenecut=0 / radl=0 / no-splice / no-intra-refresh / ctu=64 / min-cu-size=8 / no-rect / no-amp / max-tu-size=32 / tu-inter-depth=1 / tu-intra-depth=1 / limit-tu=0 / rdoq-level=2 / dynamic-rd=0.00 / no-ssim-rd / signhide / no-tskip / nr-intra=0 / nr-inter=0 / no-constrained-intra / no-strong-intra-smoothing / max-merge=3 / limit-refs=3 / limit-modes / me=3 / subme=5 / merange=57 / temporal-mvp / no-frame-dup / no-hme / weightp / no-weightb / no-analyze-src-pics / deblock=0:0 / sao / no-sao-non-deblock / rd=4 / selective-sao=4 / no-early-skip / rskip / no-fast-intra / no-tskip-fast / no-cu-lossless / no-b-intra / no-splitrd-skip / rdpenalty=0 / psy-rd=1.30 / psy-rdoq=2.00 / no-rd-refine / no-lossless / cbqpoffs=0 / crqpoffs=0 / rc=crf / crf=20.0 / qcomp=0.60 / qpstep=4 / stats-write=0 / stats-read=0 / ipratio=1.40 / pbratio=1.30 / aq-mode=4 / aq-strength=1.10 / cutree / zone-count=0 / no-strict-cbr / qg-size=32 / no-rc-grain / qpmax=69 / qpmin=0 / no-const-vbv / sar=255 / sar-width / : / sar-height=5:4 / overscan=0 / videoformat=5 / range=0 / colorprim=2 / transfer=2 / colormatrix=2 / chromaloc=0 / display-window=0 / cll=0,0 / min-luma=0 / max-luma=1023 / log2-max-poc-lsb=8 / vui-timing-info / vui-hrd-info / slices=1 / no-opt-qp-pps / no-opt-ref-list-length-pps / no-multi-pass-opt-rps / scenecut-bias=0.05 / hist-threshold=0.01 / no-opt-cu-delta-qp / no-aq-motion / no-hdr10 / no-hdr10-opt / no-dhdr10-opt / no-idr-recovery-sei / analysis-reuse-level=0 / analysis-save-reuse-level=0 / analysis-load-reuse-level=0 / scale-factor=0 / refine-intra=0 / refine-inter=0 / refine-mv=1 / refine-ctu-distortion=0 / no-limit-sao / ctu-info=0 / no-lowpass-dct / refine-analysis-type=0 / copy-pic=1 / max-ausize-factor=1.0 / no-dynamic-refine / no-single-sei / no-hevc-aq / no-svt / no-field / qp-adaptation-range=1.00 / no-scenecut-aware-qpconformance-window-offsets / right=0 / bottom=0

Default                                  : Yes

Forced                                   : No

Color range                              : Limited



Audio

ID                                       : 2

Format                                   : E-AC-3

Format/Info                              : Enhanced AC-3

Commercial name                          : Dolby Digital Plus

Codec ID                                 : A_EAC3

Duration                                 : 58 min 56 s

Bit rate mode                            : Constant

Bit rate                                 : 640 kb/s

Channel(s)                               : 6 channels

Channel layout                           : L R C LFE Ls Rs

Sampling rate                            : 48.0 kHz

Frame rate                               : 31.250 FPS (1536 SPF)

Bit depth                                : 32 bits

Compression mode                         : Lossy

Stream size                              : 270 MiB (21%)

Language                                 : English

Service kind                             : Complete Main

Default                                  : Yes

Forced                                   : No



Text #1

ID                                       : 3

Format                                   : UTF-8

Codec ID                                 : S_TEXT/UTF8

Codec ID/Info                            : UTF-8 Plain Text

Duration                                 : 56 min 34 s

Bit rate                                 : 75 b/s

Count of elements                        : 997

Stream size                              : 31.3 KiB (0%)

Title                                    : SDH

Language                                 : English

Default                                  : No

Forced                                   : No



Text #2

ID                                       : 4

Format                                   : UTF-8

Codec ID                                 : S_TEXT/UTF8

Codec ID/Info                            : UTF-8 Plain Text

Duration                                 : 56 min 57 s

Bit rate                                 : 108 b/s

Count of elements                        : 906

Stream size                              : 45.3 KiB (0%)

Language                                 : Arabic

Default                                  : No

Forced                                   : No



Text #3

ID                                       : 5

Format                                   : UTF-8

Codec ID                                 : S_TEXT/UTF8

Codec ID/Info                            : UTF-8 Plain Text

Duration                                 : 56 min 57 s

Bit rate                                 : 61 b/s

Count of elements                        : 786

Stream size                              : 25.6 KiB (0%)

Language                                 : Czech

Default                                  : No

Forced                                   : No



Text #4

ID                                       : 6

Format                                   : UTF-8

Codec ID                                 : S_TEXT/UTF8

Codec ID/Info                            : UTF-8 Plain Text

Duration                                 : 56 min 57 s

Bit rate                                 : 57 b/s

Count of elements                        : 805

Stream size                              : 24.1 KiB (0%)

Language                                 : Danish

Default                                  : No

Forced                                   : No



Text #5

ID                                       : 7

Format                                   : UTF-8

Codec ID                                 : S_TEXT/UTF8

Codec ID/Info                            : UTF-8 Plain Text

Duration                                 : 56 min 57 s

Bit rate                                 : 61 b/s

Count of elements                        : 852

Stream size                              : 25.6 KiB (0%)

Language                                 : German

Default                                  : No

Forced                                   : No



Text #6

ID                                       : 8

Format                                   : UTF-8

Codec ID                                 : S_TEXT/UTF8

Codec ID/Info                            : UTF-8 Plain Text

Duration                                 : 56 min 57 s

Bit rate                                 : 97 b/s

Count of elements                        : 891

Stream size                              : 40.5 KiB (0%)

Language                                 : Greek

Default                                  : No

Forced                                   : No



Text #7

ID                                       : 9

Format                                   : UTF-8

Codec ID                                 : S_TEXT/UTF8

Codec ID/Info                            : UTF-8 Plain Text

Duration                                 : 56 min 57 s

Bit rate                                 : 55 b/s

Count of elements                        : 891

Stream size                              : 23.2 KiB (0%)

Language                                 : Spanish

Default                                  : No

Forced                                   : No



Text #8

ID                                       : 10

Format                                   : UTF-8

Codec ID                                 : S_TEXT/UTF8

Codec ID/Info                            : UTF-8 Plain Text

Duration                                 : 56 min 57 s

Bit rate                                 : 57 b/s

Count of elements                        : 857

Stream size                              : 23.8 KiB (0%)

Title                                    : European

Language                                 : Spanish

Default                                  : No

Forced                                   : No



Text #9

ID                                       : 11

Format                                   : UTF-8

Codec ID                                 : S_TEXT/UTF8

Codec ID/Info                            : UTF-8 Plain Text

Duration                                 : 56 min 57 s

Bit rate                                 : 58 b/s

Count of elements                        : 743

Stream size                              : 24.3 KiB (0%)

Language                                 : Finnish

Default                                  : No

Forced                                   : No



Text #10

ID                                       : 12

Format                                   : UTF-8

Codec ID                                 : S_TEXT/UTF8

Codec ID/Info                            : UTF-8 Plain Text

Duration                                 : 56 min 57 s

Bit rate                                 : 59 b/s

Count of elements                        : 887

Stream size                              : 24.9 KiB (0%)

Language                                 : French

Default                                  : No

Forced                                   : No



Text #11

ID                                       : 13

Format                                   : UTF-8

Codec ID                                 : S_TEXT/UTF8

Codec ID/Info                            : UTF-8 Plain Text

Duration                                 : 56 min 57 s

Bit rate                                 : 101 b/s

Count of elements                        : 906

Stream size                              : 42.2 KiB (0%)

Language                                 : Hebrew

Default                                  : No

Forced                                   : No



Text #12

ID                                       : 14

Format                                   : UTF-8

Codec ID                                 : S_TEXT/UTF8

Codec ID/Info                            : UTF-8 Plain Text

Duration                                 : 56 min 57 s

Bit rate                                 : 56 b/s

Count of elements                        : 849

Stream size                              : 23.7 KiB (0%)

Language                                 : Hungarian

Default                                  : No

Forced                                   : No



Text #13

ID                                       : 15

Format                                   : UTF-8

Codec ID                                 : S_TEXT/UTF8

Codec ID/Info                            : UTF-8 Plain Text

Duration                                 : 56 min 58 s

Bit rate                                 : 60 b/s

Count of elements                        : 902

Stream size                              : 25.4 KiB (0%)

Language                                 : Indonesian

Default                                  : No

Forced                                   : No



Text #14

ID                                       : 16

Format                                   : UTF-8

Codec ID                                 : S_TEXT/UTF8

Codec ID/Info                            : UTF-8 Plain Text

Duration                                 : 56 min 57 s

Bit rate                                 : 57 b/s

Count of elements                        : 841

Stream size                              : 24.0 KiB (0%)

Language                                 : Italian

Default                                  : No

Forced                                   : No



Text #15

ID                                       : 17

Format                                   : UTF-8

Codec ID                                 : S_TEXT/UTF8

Codec ID/Info                            : UTF-8 Plain Text

Duration                                 : 57 min 0 s

Bit rate                                 : 56 b/s

Count of elements                        : 803

Stream size                              : 23.7 KiB (0%)

Language                                 : Japanese

Default                                  : No

Forced                                   : No



Text #16

ID                                       : 18

Format                                   : UTF-8

Codec ID                                 : S_TEXT/UTF8

Codec ID/Info                            : UTF-8 Plain Text

Duration                                 : 56 min 57 s

Bit rate                                 : 75 b/s

Count of elements                        : 916

Stream size                              : 31.5 KiB (0%)

Language                                 : Korean

Default                                  : No

Forced                                   : No



Text #17

ID                                       : 19

Format                                   : UTF-8

Codec ID                                 : S_TEXT/UTF8

Codec ID/Info                            : UTF-8 Plain Text

Duration                                 : 56 min 57 s

Bit rate                                 : 58 b/s

Count of elements                        : 799

Stream size                              : 24.3 KiB (0%)

Language                                 : Norwegian Bokmal

Default                                  : No

Forced                                   : No



Text #18

ID                                       : 20

Format                                   : UTF-8

Codec ID                                 : S_TEXT/UTF8

Codec ID/Info                            : UTF-8 Plain Text

Duration                                 : 56 min 58 s

Bit rate                                 : 57 b/s

Count of elements                        : 825

Stream size                              : 23.8 KiB (0%)

Language                                 : Dutch

Default                                  : No

Forced                                   : No



Text #19

ID                                       : 21

Format                                   : UTF-8

Codec ID                                 : S_TEXT/UTF8

Codec ID/Info                            : UTF-8 Plain Text

Duration                                 : 56 min 57 s

Bit rate                                 : 56 b/s

Count of elements                        : 860

Stream size                              : 23.5 KiB (0%)

Language                                 : Polish

Default                                  : No

Forced                                   : No



Text #20

ID                                       : 22

Format                                   : UTF-8

Codec ID                                 : S_TEXT/UTF8

Codec ID/Info                            : UTF-8 Plain Text

Duration                                 : 56 min 57 s

Bit rate                                 : 57 b/s

Count of elements                        : 885

Stream size                              : 24.1 KiB (0%)

Language                                 : Portuguese

Default                                  : No

Forced                                   : No



Text #21

ID                                       : 23

Format                                   : UTF-8

Codec ID                                 : S_TEXT/UTF8

Codec ID/Info                            : UTF-8 Plain Text

Duration                                 : 56 min 57 s

Bit rate                                 : 58 b/s

Count of elements                        : 860

Stream size                              : 24.4 KiB (0%)

Title                                    : Brazilian

Language                                 : Portuguese

Default                                  : No

Forced                                   : No



Text #22

ID                                       : 24

Format                                   : UTF-8

Codec ID                                 : S_TEXT/UTF8

Codec ID/Info                            : UTF-8 Plain Text

Duration                                 : 55 min 5 s

Bit rate                                 : 65 b/s

Count of elements                        : 797

Stream size                              : 26.4 KiB (0%)

Language                                 : Romanian

Default                                  : No

Forced                                   : No



Text #23

ID                                       : 25

Format                                   : UTF-8

Codec ID                                 : S_TEXT/UTF8

Codec ID/Info                            : UTF-8 Plain Text

Duration                                 : 56 min 58 s

Bit rate                                 : 99 b/s

Count of elements                        : 890

Stream size                              : 41.5 KiB (0%)

Language                                 : Russian

Default                                  : No

Forced                                   : No



Text #24

ID                                       : 26

Format                                   : UTF-8

Codec ID                                 : S_TEXT/UTF8

Codec ID/Info                            : UTF-8 Plain Text

Duration                                 : 56 min 57 s

Bit rate                                 : 59 b/s

Count of elements                        : 869

Stream size                              : 24.6 KiB (0%)

Language                                 : Swedish

Default                                  : No

Forced                                   : No



Text #25

ID                                       : 27

Format                                   : UTF-8

Codec ID                                 : S_TEXT/UTF8

Codec ID/Info                            : UTF-8 Plain Text

Duration                                 : 56 min 57 s

Bit rate                                 : 166 b/s

Count of elements                        : 918

Stream size                              : 69.6 KiB (0%)

Language                                 : Thai

Default                                  : No

Forced                                   : No



Text #26

ID                                       : 28

Format                                   : UTF-8

Codec ID                                 : S_TEXT/UTF8

Codec ID/Info                            : UTF-8 Plain Text

Duration                                 : 56 min 58 s

Bit rate                                 : 61 b/s

Count of elements                        : 798

Stream size                              : 25.5 KiB (0%)

Language                                 : Turkish

Default                                  : No

Forced                                   : No



Text #27

ID                                       : 29

Format                                   : UTF-8

Codec ID                                 : S_TEXT/UTF8

Codec ID/Info                            : UTF-8 Plain Text

Duration                                 : 56 min 57 s

Bit rate                                 : 83 b/s

Count of elements                        : 866

Stream size                              : 34.6 KiB (0%)

Language                                 : Vietnamese

Default                                  : No

Forced                                   : No



Text #28

ID                                       : 30

Format                                   : UTF-8

Codec ID                                 : S_TEXT/UTF8

Codec ID/Info                            : UTF-8 Plain Text

Duration                                 : 56 min 57 s

Bit rate                                 : 65 b/s

Count of elements                        : 914

Stream size                              : 27.5 KiB (0%)

Title                                    : Simplified

Language                                 : Chinese

Default                                  : No

Forced                                   : No



Text #29

ID                                       : 31

Format                                   : UTF-8

Codec ID                                 : S_TEXT/UTF8

Codec ID/Info                            : UTF-8 Plain Text

Duration                                 : 56 min 57 s

Bit rate                                 : 65 b/s

Count of elements                        : 952

Stream size                              : 27.4 KiB (0%)

Title                                    : Traditional

Language                                 : Chinese

Default                                  : No

Forced                                   : No





Source

2160p NF WEBDL NTb

Discussion

Comments 0

Post Your Comment

Files in this torrent

FILENAMESIZE
13 Reasons Why (2017) S04E01 Winter Break (4kto1080p NF Webrip x265 10bit EAC3 5.1 - Ainz)[TAoE].mkv1.3 GB
13 Reasons Why (2017) S04E02 College Tour (4kto1080p NF Webrip x265 10bit EAC3 5.1 - Ainz)[TAoE].mkv1.2 GB
13 Reasons Why (2017) S04E03 Valentine's Day (4kto1080p NF Webrip x265 10bit EAC3 5.1 - Ainz)[TAoE].mkv1.3 GB
13 Reasons Why (2017) S04E04 REPACK (4kto1080p NF Webrip x265 10bit EAC3 5.1 - Ainz)[TAoE].mkv1.3 GB
13 Reasons Why (2017) S04E05 REPACK (4kto1080p NF Webrip x265 10bit EAC3 5.1 - Ainz)[TAoE].mkv1.2 GB
13 Reasons Why (2017) S04E06 Thursday (4kto1080p NF Webrip x265 10bit EAC3 5.1 - Ainz)[TAoE].mkv1.1 GB
13 Reasons Why (2017) S04E07 College Interview (4kto1080p NF Webrip x265 10bit EAC3 5.1 - Ainz)[TAoE].mkv1.1 GB
13 Reasons Why (2017) S04E08 Acceptance Rejection (4kto1080p NF Webrip x265 10bit EAC3 5.1 - Ainz)[TAoE].mkv1.5 GB
13 Reasons Why (2017) S04E09 Prom (4kto1080p NF Webrip x265 10bit EAC3 5.1 - Ainz)[TAoE].mkv1.1 GB
13 Reasons Why (2017) S04E10 Graduation (4kto1080p NF Webrip x265 10bit EAC3 5.1 - Ainz)[TAoE].mkv1.8 GB

Alternative Torrents for 'Reasons Why REPACK ktop NF bit EAC Ainz'.

TORRENT NAMEADDEDSIZESEEDSPEERSHEALTH
10/16/2020797 MB79396
10/9/20201.9 GB793150
10/16/202012.4 GB548144
10/17/202019 GB442470
10/10/2020352 MB3856
Yesterday11.7 GB3741226
10/17/202074.8 GB3391056
10/9/2020766 MB292126
10/14/2020697 MB27618
10/14/20203.4 GB27321
10/16/20203.8 GB26943
10/8/2020663 MB2484
10/16/202023.6 GB232519
10/16/202042.1 GB231237
10/17/20202.2 GB20383