Futurama - The Beast With A Billion Backs (2008) (1080p Webrip X265 10bit AC3 5.1 - Goki)[TAoE]

Torrent Details

Futurama - The Beast with a Billion Backs (2008) (1080p Webrip x265 10bit AC3 5.1 - Goki)<span style=color:#fc9c6d>[TAoE]</span>
Futurama - The Beast with a Billion Backs (2008) (1080p Webrip x265 10bit AC3 5.1 - Goki)<span style=color:#fc9c6d>[TAoE]</span>

NAME
Futurama - The Beast with a Billion Backs (2008) (1080p Webrip x265 10bit AC3 5.1 - Goki)[TAoE].torrent
CATEGORY
Movies
INFOHASH
32c145436d78662af3214cb1fecd735238b7755f
SIZE
1.1 GB in 7 files
ADDED
Uploaded on 02-07-2020 by our crawler pet called "Spidey".
SWARM
0 seeders & 0 peers
RATING
No votes yet.

Please login to vote for this torrent.


Description



Hello everyone,

We are TAoE, a small team of passionate encoders who love encoding. We try our best to provide you with high quality releases.



Requests for movies and shows are welcome.

We have a form for encode requests which can be found here

Encode requests form

submit your request and it will be added to our encoding request list

You can view our encoding request list here

Encode requests list





When or if we encode it will depend on if we can obtain a good source to encode with and

if one of the TAoE encoders chooses to encode it. Unfortunately we are not able to encode everything,

new members are welcome as that helps us encode more content!



If you would like to join TAoE submit your request here!

TAoE member applications form









Futurama: The Beast with a Billion Backs (2008) IMDB









Media Information



General

Unique ID                                : 9088103197422895506049782445682635511 (0x6D64E150A7D666D76749D92B9FEB2F7)

Complete name                            : Futurama - The Beast with a Billion Backs (2008) (1080p  Webrip x265 10bit AC3 5.1 - Goki)[TAoE].mkv

Format                                   : Matroska

Format version                           : Version 4

File size                                : 1.10 GiB

Duration                                 : 1 h 28 min

Overall bit rate                         : 1 766 kb/s

Movie name                               : Futurama - The Beast with a Billion Backs (2008) (1080p  Webrip x265 10bit AC3 5.1 - Goki)[TAoE].mkv

Writing application                      : Lavf58.29.100

Writing library                          : Lavf58.29.100

ErrorDetectionType                       : Per level 1



Video

ID                                       : 1

Format                                   : HEVC

Format/Info                              : High Efficiency Video Coding

Format profile                           : Main [email protected]@Main

Codec ID                                 : V_MPEGH/ISO/HEVC

Duration                                 : 1 h 28 min

Bit rate                                 : 1 379 kb/s

Width                                    : 1 920 pixels

Height                                   : 1 080 pixels

Display aspect ratio                     : 16:9

Frame rate mode                          : Constant

Frame rate                               : 23.976 (23976/1000) FPS

Color space                              : YUV

Chroma subsampling                       : 4:2:0

Bit depth                                : 10 bits

Bits/(Pixel*Frame)                       : 0.028

Stream size                              : 876 MiB (78%)

Title                                    : Encoded by Goki for TAoE using Shinguru V1.3

Writing library                          : x265 3.2+35-acc5d16999e2:[Windows][GCC 9.2.1][64 bit] 10bit

Encoding settings                        : cpuid=1111039 / frame-threads=4 / numa-pools=24 / wpp / no-pmode / no-pme / no-psnr / no-ssim / log-level=2 / input-csp=1 / input-res=1920x1080 / interlace=0 / total-frames=0 / level-idc=0 / high-tier=1 / uhd-bd=0 / ref=4 / no-allow-non-conformance / no-repeat-headers / annexb / no-aud / no-hrd / info / hash=0 / no-temporal-layers / open-gop / min-keyint=23 / keyint=250 / gop-lookahead=0 / bframes=8 / b-adapt=2 / b-pyramid / bframe-bias=0 / rc-lookahead=80 / lookahead-slices=4 / scenecut=40 / hist-scenecut=0 / radl=0 / no-splice / no-intra-refresh / ctu=64 / min-cu-size=8 / no-rect / no-amp / max-tu-size=32 / tu-inter-depth=1 / tu-intra-depth=1 / limit-tu=0 / rdoq-level=2 / dynamic-rd=0.00 / no-ssim-rd / signhide / no-tskip / nr-intra=0 / nr-inter=0 / no-constrained-intra / no-strong-intra-smoothing / max-merge=3 / limit-refs=3 / limit-modes / me=3 / subme=5 / merange=57 / temporal-mvp / no-frame-dup / no-hme / weightp / no-weightb / no-analyze-src-pics / deblock=0:0 / sao / no-sao-non-deblock / rd=4 / selective-sao=4 / no-early-skip / rskip / no-fast-intra / no-tskip-fast / no-cu-lossless / no-b-intra / no-splitrd-skip / rdpenalty=0 / psy-rd=1.30 / psy-rdoq=2.00 / no-rd-refine / no-lossless / cbqpoffs=0 / crqpoffs=0 / rc=crf / crf=22.0 / qcomp=0.60 / qpstep=4 / stats-write=0 / stats-read=0 / ipratio=1.40 / pbratio=1.30 / aq-mode=4 / aq-strength=1.10 / cutree / zone-count=0 / no-strict-cbr / qg-size=32 / no-rc-grain / qpmax=69 / qpmin=0 / no-const-vbv / sar=1 / overscan=0 / videoformat=5 / range=0 / colorprim=2 / transfer=2 / colormatrix=2 / chromaloc=0 / display-window=0 / cll=0,0 / min-luma=0 / max-luma=1023 / log2-max-poc-lsb=8 / vui-timing-info / vui-hrd-info / slices=1 / no-opt-qp-pps / no-opt-ref-list-length-pps / no-multi-pass-opt-rps / scenecut-bias=0.05 / hist-threshold=0.01 / no-opt-cu-delta-qp / no-aq-motion / no-hdr10 / no-hdr10-opt / no-dhdr10-opt / no-idr-recovery-sei / analysis-reuse-level=0 / analysis-save-reuse-level=0 / analysis-load-reuse-level=0 / scale-factor=0 / refine-intra=0 / refine-inter=0 / refine-mv=1 / refine-ctu-distortion=0 / no-limit-sao / ctu-info=0 / no-lowpass-dct / refine-analysis-type=0 / copy-pic=1 / max-ausize-factor=1.0 / no-dynamic-refine / no-single-sei / no-hevc-aq / no-svt / no-field / qp-adaptation-range=1.00 / no-scenecut-aware-qpconformance-window-offsets / right=0 / bottom=0

Language                                 : English

Default                                  : Yes

Forced                                   : No

Color range                              : Limited



Audio

ID                                       : 2

Format                                   : AC-3

Format/Info                              : Audio Coding 3

Commercial name                          : Dolby Digital

Codec ID                                 : A_AC3

Duration                                 : 1 h 28 min

Bit rate mode                            : Constant

Bit rate                                 : 384 kb/s

Channel(s)                               : 6 channels

Channel layout                           : L R C LFE Ls Rs

Sampling rate                            : 48.0 kHz

Frame rate                               : 31.250 FPS (1536 SPF)

Bit depth                                : 32 bits

Compression mode                         : Lossy

Stream size                              : 244 MiB (22%)

Language                                 : English

Service kind                             : Complete Main

Default                                  : Yes

Forced                                   : No



Text

ID                                       : 3

Format                                   : UTF-8

Codec ID                                 : S_TEXT/UTF8

Codec ID/Info                            : UTF-8 Plain Text

Duration                                 : 1 h 27 min

Bit rate                                 : 74 b/s

Count of elements                        : 1488

Stream size                              : 47.4 KiB (0%)

Language                                 : English

Default                                  : No

Forced                                   : No



Source



General

Unique ID                                : 254531785347690116220989845988945634520 (0xBF7D09E98CE6108697E3C1B21DE324D8)

Complete name                            : Futurama.The.Beast.With.a.Billion.Backs.2008.1080p.WEB-DL.DD5.1.H.264-DON.mkv

Format                                   : Matroska

Format version                           : Version 2

File size                                : 3.35 GiB

Duration                                 : 1 h 28 min

Overall bit rate                         : 5 406 kb/s

Encoded date                             : UTC 2012-10-03 11:23:44

Writing application                      : mkvmerge v5.8.0 ('No Sleep / Pillow') built on Sep  2 2012 15:37:04

Writing library                          : libebml v1.2.3 + libmatroska v1.3.0

Discussion

Comments 0

Post Your Comment

Files in this torrent

FILENAMESIZE
Futurama - The Beast with a Billion Backs (2008) (1080p Webrip x265 10bit AC3 5.1 - Goki)[TAoE]-clearlogo.png136.1 KB
Futurama - The Beast with a Billion Backs (2008) (1080p Webrip x265 10bit AC3 5.1 - Goki)[TAoE]-disc.png953.7 KB
Futurama - The Beast with a Billion Backs (2008) (1080p Webrip x265 10bit AC3 5.1 - Goki)[TAoE]-fanart.jpg752.2 KB
Futurama - The Beast with a Billion Backs (2008) (1080p Webrip x265 10bit AC3 5.1 - Goki)[TAoE]-logo.png136.1 KB
Futurama - The Beast with a Billion Backs (2008) (1080p Webrip x265 10bit AC3 5.1 - Goki)[TAoE]-poster.jpg100.1 KB
Futurama - The Beast with a Billion Backs (2008) (1080p Webrip x265 10bit AC3 5.1 - Goki)[TAoE].mkv1.1 GB
Futurama - The Beast with a Billion Backs (2008) (1080p Webrip x265 10bit AC3 5.1 - Goki)[TAoE].nfo6.2 KB

Alternative Torrents for 'Futurama Beast with Billion Backs bit Goki'.

TORRENT NAMEADDEDSIZESEEDSPEERSHEALTH
8/3/2020269 MB42926
8/3/2020277 MB27689
8/3/20201 GB24221
8/3/2020530 MB2199
7/27/2020879 MB21344
7/27/2020316 MB20411
8/4/2020778 MB19989
8/3/20202.3 GB19851
8/4/2020796 MB19667
8/4/20201.6 GB17465
8/3/20201 GB1498
7/24/2020698 MB14740
7/27/20201 GB14113
8/3/2020365 MB13420
8/5/20201000 MB13298