Eurovision Song Contest The Story Of Fire Saga (2020) (1080p NF WebRip X265 10bit EAC3 5.1 - ArcX)[TAoE]

Torrent Details

Eurovision Song Contest The Story of Fire Saga (2020) (1080p NF WebRip x265 10bit EAC3 5.1 - ArcX)<span style=color:#fc9c6d>[TAoE]</span>
Eurovision Song Contest The Story of Fire Saga (2020) (1080p NF WebRip x265 10bit EAC3 5.1 - ArcX)<span style=color:#fc9c6d>[TAoE]</span>

NAME
Eurovision Song Contest The Story of Fire Saga (2020) (1080p NF WebRip x265 10bit EAC3 5.1 - ArcX)[TAoE].torrent
CATEGORY
Movies
INFOHASH
031241dbfeb10d50b7f0ec87a5f1be75959ebd59
SIZE
4.7 GB in 1 file
ADDED
Uploaded on 02-07-2020 by our crawler pet called "Spidey".
SWARM
0 seeders & 0 peers
RATING
No votes yet.

Please login to vote for this torrent.


Description



Hello everyone,

We are TAoE, a small team of passionate encoders who love encoding. We try our best to provide you with high quality releases.



Requests for movies and shows are welcome.

We have a form for encode requests which can be found here

Encode requests form

submit your request and it will be added to our encoding request list

You can view our encoding request list here

Encode requests list





When or if we encode it will depend on if we can obtain a good source to encode with and

if one of the TAoE encoders chooses to encode it. Unfortunately we are not able to encode everything,

new members are welcome as that helps us encode more content!



If you would like to join TAoE submit your request here!

TAoE member applications form









Eurovision Song Contest: The Story of Fire Saga (2020) IMDB















Media Information



General

Unique ID                                : 88328220728519630405393394388001285934 (0x42736582913FE77E17AE37DA6766E72E)

Complete name                            : Eurovision Song Contest The Story of Fire Saga (2020) (1080p NF WebRip x265 10bit EAC3 5.1 - ArcX)[TAoE].mkv

Format                                   : Matroska

Format version                           : Version 4

File size                                : 4.71 GiB

Duration                                 : 2 h 3 min

Overall bit rate                         : 5 457 kb/s

Movie name                               : Eurovision Song Contest The Story of Fire Saga (2020) (1080p NF WebRip x265 10bit EAC3 5.1 - ArcX)[TAoE].mkv

Writing application                      : Lavf58.29.100

Writing library                          : Lavf58.29.100

ErrorDetectionType                       : Per level 1



Video

ID                                       : 1

Format                                   : HEVC

Format/Info                              : High Efficiency Video Coding

Format profile                           : Main [email protected]@Main

Codec ID                                 : V_MPEGH/ISO/HEVC

Duration                                 : 2 h 3 min

Bit rate                                 : 4 810 kb/s

Width                                    : 1 920 pixels

Height                                   : 1 038 pixels

Display aspect ratio                     : 1.85:1

Frame rate mode                          : Constant

Frame rate                               : 24.000 FPS

Color space                              : YUV

Chroma subsampling                       : 4:2:0

Bit depth                                : 10 bits

Bits/(Pixel*Frame)                       : 0.101

Stream size                              : 4.15 GiB (88%)

Title                                    : Encoded by ArcX for TAoE using Kori-Web V1.0

Writing library                          : x265 3.2.1+1-b5c86a64bbbe:[Linux][GCC 9.2.1][64 bit] 10bit

Encoding settings                        : cpuid=1111039 / frame-threads=2 / wpp / no-pmode / no-pme / no-psnr / no-ssim / log-level=2 / input-csp=1 / input-res=1920x1038 / interlace=0 / total-frames=0 / level-idc=0 / high-tier=1 / uhd-bd=0 / ref=4 / no-allow-non-conformance / no-repeat-headers / annexb / no-aud / no-hrd / info / hash=0 / no-temporal-layers / open-gop / min-keyint=24 / keyint=250 / gop-lookahead=0 / bframes=8 / b-adapt=2 / b-pyramid / bframe-bias=0 / rc-lookahead=80 / lookahead-slices=4 / scenecut=40 / radl=0 / no-splice / no-intra-refresh / ctu=64 / min-cu-size=8 / no-rect / no-amp / max-tu-size=32 / tu-inter-depth=1 / tu-intra-depth=1 / limit-tu=0 / rdoq-level=2 / dynamic-rd=0.00 / no-ssim-rd / signhide / no-tskip / nr-intra=0 / nr-inter=0 / no-constrained-intra / no-strong-intra-smoothing / max-merge=3 / limit-refs=3 / limit-modes / me=3 / subme=5 / merange=57 / temporal-mvp / no-hme / weightp / no-weightb / no-analyze-src-pics / deblock=0:0 / sao / no-sao-non-deblock / rd=4 / selective-sao=4 / no-early-skip / rskip / no-fast-intra / no-tskip-fast / no-cu-lossless / no-b-intra / no-splitrd-skip / rdpenalty=0 / psy-rd=1.30 / psy-rdoq=2.00 / no-rd-refine / no-lossless / cbqpoffs=0 / crqpoffs=0 / rc=crf / crf=20.0 / qcomp=0.60 / qpstep=4 / stats-write=0 / stats-read=0 / ipratio=1.40 / pbratio=1.30 / aq-mode=4 / aq-strength=1.10 / cutree / zone-count=0 / no-strict-cbr / qg-size=32 / no-rc-grain / qpmax=69 / qpmin=0 / no-const-vbv / sar=1 / overscan=0 / videoformat=5 / range=0 / colorprim=2 / transfer=2 / colormatrix=2 / chromaloc=0 / display-window=0 / cll=0,0 / min-luma=0 / max-luma=1023 / log2-max-poc-lsb=8 / vui-timing-info / vui-hrd-info / slices=1 / no-opt-qp-pps / no-opt-ref-list-length-pps / no-multi-pass-opt-rps / scenecut-bias=0.05 / no-opt-cu-delta-qp / no-aq-motion / no-hdr / no-hdr-opt / no-dhdr10-opt / no-idr-recovery-sei / analysis-reuse-level=5 / scale-factor=0 / refine-intra=0 / refine-inter=0 / refine-mv=1 / refine-ctu-distortion=0 / no-limit-sao / ctu-info=0 / no-lowpass-dct / refine-analysis-type=0 / copy-pic=1 / max-ausize-factor=1.0 / no-dynamic-refine / no-single-sei / no-hevc-aq / no-svt / no-field / qp-adaptation-range=1.00

Default                                  : Yes

Forced                                   : No

Color range                              : Limited



Audio

ID                                       : 2

Format                                   : E-AC-3

Format/Info                              : Enhanced AC-3

Commercial name                          : Dolby Digital Plus

Codec ID                                 : A_EAC3

Duration                                 : 2 h 3 min

Bit rate mode                            : Constant

Bit rate                                 : 640 kb/s

Channel(s)                               : 6 channels

Channel layout                           : L R C LFE Ls Rs

Sampling rate                            : 48.0 kHz

Frame rate                               : 31.250 FPS (1536 SPF)

Bit depth                                : 32 bits

Compression mode                         : Lossy

Stream size                              : 566 MiB (12%)

Language                                 : English

Service kind                             : Complete Main

Default                                  : Yes

Forced                                   : No



Text #1

ID                                       : 3

Format                                   : UTF-8

Codec ID                                 : S_TEXT/UTF8

Codec ID/Info                            : UTF-8 Plain Text

Duration                                 : 1 min 10 s

Bit rate                                 : 30 b/s

Count of elements                        : 10

Stream size                              : 268 Bytes (0%)

Title                                    : Forced

Language                                 : English

Default                                  : No

Forced                                   : Yes



Text #2

ID                                       : 4

Format                                   : UTF-8

Codec ID                                 : S_TEXT/UTF8

Codec ID/Info                            : UTF-8 Plain Text

Duration                                 : 1 h 53 min

Bit rate                                 : 78 b/s

Count of elements                        : 2039

Stream size                              : 64.9 KiB (0%)

Language                                 : English

Default                                  : No

Forced                                   : No



Text #3

ID                                       : 5

Format                                   : UTF-8

Codec ID                                 : S_TEXT/UTF8

Codec ID/Info                            : UTF-8 Plain Text

Duration                                 : 1 h 59 min

Bit rate                                 : 81 b/s

Count of elements                        : 2280

Stream size                              : 71.7 KiB (0%)

Title                                    : SDH

Language                                 : English

Default                                  : No

Forced                                   : No



Text #4

ID                                       : 6

Format                                   : UTF-8

Codec ID                                 : S_TEXT/UTF8

Codec ID/Info                            : UTF-8 Plain Text

Duration                                 : 1 h 54 min

Bit rate                                 : 112 b/s

Count of elements                        : 1851

Stream size                              : 93.7 KiB (0%)

Language                                 : Arabic

Default                                  : No

Forced                                   : No



Text #5

ID                                       : 7

Format                                   : UTF-8

Codec ID                                 : S_TEXT/UTF8

Codec ID/Info                            : UTF-8 Plain Text

Duration                                 : 1 h 54 min

Bit rate                                 : 59 b/s

Count of elements                        : 1844

Stream size                              : 50.0 KiB (0%)

Language                                 : Czech

Default                                  : No

Forced                                   : No



Text #6

ID                                       : 8

Format                                   : UTF-8

Codec ID                                 : S_TEXT/UTF8

Codec ID/Info                            : UTF-8 Plain Text

Duration                                 : 1 h 54 min

Bit rate                                 : 59 b/s

Count of elements                        : 1277

Stream size                              : 49.6 KiB (0%)

Language                                 : Danish

Default                                  : No

Forced                                   : No



Text #7

ID                                       : 9

Format                                   : UTF-8

Codec ID                                 : S_TEXT/UTF8

Codec ID/Info                            : UTF-8 Plain Text

Duration                                 : 2 h 0 min

Bit rate                                 : 59 b/s

Count of elements                        : 1799

Stream size                              : 52.2 KiB (0%)

Language                                 : German

Default                                  : No

Forced                                   : No



Text #8

ID                                       : 10

Format                                   : UTF-8

Codec ID                                 : S_TEXT/UTF8

Codec ID/Info                            : UTF-8 Plain Text

Duration                                 : 2 h 0 min

Bit rate                                 : 98 b/s

Count of elements                        : 1898

Stream size                              : 87.2 KiB (0%)

Language                                 : Greek

Default                                  : No

Forced                                   : No



Text #9

ID                                       : 11

Format                                   : UTF-8

Codec ID                                 : S_TEXT/UTF8

Codec ID/Info                            : UTF-8 Plain Text

Duration                                 : 2 h 0 min

Bit rate                                 : 59 b/s

Count of elements                        : 1866

Stream size                              : 52.6 KiB (0%)

Language                                 : Spanish

Default                                  : No

Forced                                   : No



Text #10

ID                                       : 12

Format                                   : UTF-8

Codec ID                                 : S_TEXT/UTF8

Codec ID/Info                            : UTF-8 Plain Text

Duration                                 : 1 h 54 min

Bit rate                                 : 60 b/s

Count of elements                        : 1840

Stream size                              : 50.3 KiB (0%)

Title                                    : European

Language                                 : Spanish

Default                                  : No

Forced                                   : No



Text #11

ID                                       : 13

Format                                   : UTF-8

Codec ID                                 : S_TEXT/UTF8

Codec ID/Info                            : UTF-8 Plain Text

Duration                                 : 1 h 54 min

Bit rate                                 : 58 b/s

Count of elements                        : 1495

Stream size                              : 48.6 KiB (0%)

Language                                 : Finnish

Default                                  : No

Forced                                   : No



Text #12

ID                                       : 14

Format                                   : UTF-8

Codec ID                                 : S_TEXT/UTF8

Codec ID/Info                            : UTF-8 Plain Text

Duration                                 : 1 h 54 min

Bit rate                                 : 56 b/s

Count of elements                        : 1634

Stream size                              : 46.8 KiB (0%)

Language                                 : French

Default                                  : No

Forced                                   : No



Text #13

ID                                       : 15

Format                                   : UTF-8

Codec ID                                 : S_TEXT/UTF8

Codec ID/Info                            : UTF-8 Plain Text

Duration                                 : 1 h 54 min

Bit rate                                 : 98 b/s

Count of elements                        : 1977

Stream size                              : 82.0 KiB (0%)

Language                                 : Hebrew

Default                                  : No

Forced                                   : No



Text #14

ID                                       : 16

Format                                   : UTF-8

Codec ID                                 : S_TEXT/UTF8

Codec ID/Info                            : UTF-8 Plain Text

Duration                                 : 1 h 54 min

Bit rate                                 : 64 b/s

Count of elements                        : 1792

Stream size                              : 54.2 KiB (0%)

Language                                 : Hungarian

Default                                  : No

Forced                                   : No



Text #15

ID                                       : 17

Format                                   : UTF-8

Codec ID                                 : S_TEXT/UTF8

Codec ID/Info                            : UTF-8 Plain Text

Duration                                 : 1 h 54 min

Bit rate                                 : 64 b/s

Count of elements                        : 1844

Stream size                              : 54.0 KiB (0%)

Language                                 : Indonesian

Default                                  : No

Forced                                   : No



Text #16

ID                                       : 18

Format                                   : UTF-8

Codec ID                                 : S_TEXT/UTF8

Codec ID/Info                            : UTF-8 Plain Text

Duration                                 : 1 h 54 min

Bit rate                                 : 59 b/s

Count of elements                        : 1834

Stream size                              : 49.9 KiB (0%)

Language                                 : Italian

Default                                  : No

Forced                                   : No



Text #17

ID                                       : 19

Format                                   : UTF-8

Codec ID                                 : S_TEXT/UTF8

Codec ID/Info                            : UTF-8 Plain Text

Duration                                 : 1 h 54 min

Bit rate                                 : 63 b/s

Count of elements                        : 1910

Stream size                              : 52.9 KiB (0%)

Language                                 : Japanese

Default                                  : No

Forced                                   : No



Text #18

ID                                       : 20

Format                                   : UTF-8

Codec ID                                 : S_TEXT/UTF8

Codec ID/Info                            : UTF-8 Plain Text

Duration                                 : 1 h 54 min

Bit rate                                 : 80 b/s

Count of elements                        : 1859

Stream size                              : 67.4 KiB (0%)

Language                                 : Korean

Default                                  : No

Forced                                   : No



Text #19

ID                                       : 21

Format                                   : UTF-8

Codec ID                                 : S_TEXT/UTF8

Codec ID/Info                            : UTF-8 Plain Text

Duration                                 : 1 h 54 min

Bit rate                                 : 56 b/s

Count of elements                        : 1548

Stream size                              : 47.3 KiB (0%)

Language                                 : Norwegian Bokmal

Default                                  : No

Forced                                   : No



Text #20

ID                                       : 22

Format                                   : UTF-8

Codec ID                                 : S_TEXT/UTF8

Codec ID/Info                            : UTF-8 Plain Text

Duration                                 : 1 h 54 min

Bit rate                                 : 55 b/s

Count of elements                        : 1445

Stream size                              : 46.0 KiB (0%)

Language                                 : Dutch

Default                                  : No

Forced                                   : No



Text #21

ID                                       : 23

Format                                   : UTF-8

Codec ID                                 : S_TEXT/UTF8

Codec ID/Info                            : UTF-8 Plain Text

Duration                                 : 1 h 54 min

Bit rate                                 : 56 b/s

Count of elements                        : 1836

Stream size                              : 47.5 KiB (0%)

Language                                 : Polish

Default                                  : No

Forced                                   : No



Text #22

ID                                       : 24

Format                                   : UTF-8

Codec ID                                 : S_TEXT/UTF8

Codec ID/Info                            : UTF-8 Plain Text

Duration                                 : 1 h 54 min

Bit rate                                 : 61 b/s

Count of elements                        : 1770

Stream size                              : 51.7 KiB (0%)

Language                                 : Portuguese

Default                                  : No

Forced                                   : No



Text #23

ID                                       : 25

Format                                   : UTF-8

Codec ID                                 : S_TEXT/UTF8

Codec ID/Info                            : UTF-8 Plain Text

Duration                                 : 1 h 54 min

Bit rate                                 : 59 b/s

Count of elements                        : 1828

Stream size                              : 49.9 KiB (0%)

Title                                    : Brazilian

Language                                 : Portuguese

Default                                  : No

Forced                                   : No



Text #24

ID                                       : 26

Format                                   : UTF-8

Codec ID                                 : S_TEXT/UTF8

Codec ID/Info                            : UTF-8 Plain Text

Duration                                 : 1 h 54 min

Bit rate                                 : 66 b/s

Count of elements                        : 1677

Stream size                              : 55.9 KiB (0%)

Language                                 : Romanian

Default                                  : No

Forced                                   : No



Text #25

ID                                       : 27

Format                                   : UTF-8

Codec ID                                 : S_TEXT/UTF8

Codec ID/Info                            : UTF-8 Plain Text

Duration                                 : 1 h 54 min

Bit rate                                 : 99 b/s

Count of elements                        : 1837

Stream size                              : 82.9 KiB (0%)

Language                                 : Russian

Default                                  : No

Forced                                   : No



Text #26

ID                                       : 28

Format                                   : UTF-8

Codec ID                                 : S_TEXT/UTF8

Codec ID/Info                            : UTF-8 Plain Text

Duration                                 : 1 h 54 min

Bit rate                                 : 60 b/s

Count of elements                        : 1424

Stream size                              : 50.5 KiB (0%)

Language                                 : Swedish

Default                                  : No

Forced                                   : No



Text #27

ID                                       : 29

Format                                   : UTF-8

Codec ID                                 : S_TEXT/UTF8

Codec ID/Info                            : UTF-8 Plain Text

Duration                                 : 1 h 54 min

Bit rate                                 : 154 b/s

Count of elements                        : 1847

Stream size                              : 129 KiB (0%)

Language                                 : Thai

Default                                  : No

Forced                                   : No



Text #28

ID                                       : 30

Format                                   : UTF-8

Codec ID                                 : S_TEXT/UTF8

Codec ID/Info                            : UTF-8 Plain Text

Duration                                 : 1 h 54 min

Bit rate                                 : 63 b/s

Count of elements                        : 1755

Stream size                              : 53.4 KiB (0%)

Language                                 : Turkish

Default                                  : No

Forced                                   : No



Text #29

ID                                       : 31

Format                                   : UTF-8

Codec ID                                 : S_TEXT/UTF8

Codec ID/Info                            : UTF-8 Plain Text

Duration                                 : 1 h 54 min

Bit rate                                 : 87 b/s

Count of elements                        : 1823

Stream size                              : 73.5 KiB (0%)

Language                                 : Vietnamese

Default                                  : No

Forced                                   : No



Text #30

ID                                       : 32

Format                                   : UTF-8

Codec ID                                 : S_TEXT/UTF8

Codec ID/Info                            : UTF-8 Plain Text

Duration                                 : 1 h 54 min

Bit rate                                 : 68 b/s

Count of elements                        : 1845

Stream size                              : 57.6 KiB (0%)

Title                                    : Simplified

Language                                 : Chinese

Default                                  : No

Forced                                   : No



Text #31

ID                                       : 33

Format                                   : UTF-8

Codec ID                                 : S_TEXT/UTF8

Codec ID/Info                            : UTF-8 Plain Text

Duration                                 : 1 h 54 min

Bit rate                                 : 65 b/s

Count of elements                        : 1859

Stream size                              : 54.7 KiB (0%)

Title                                    : Traditional

Language                                 : Chinese

Default                                  : No

Forced                                   : No



Source Information

1080p NF WEBRip AJP69

Discussion

Comments 0

Post Your Comment

Files in this torrent

FILENAMESIZE
Eurovision Song Contest The Story of Fire Saga (2020) (1080p NF WebRip x265 10bit EAC3 5.1 - ArcX)[TAoE].mkv4.7 GB

Alternative Torrents for 'Eurovision Song Contest Story of Fire Saga NF bit EAC ArcX'.

TORRENT NAMEADDEDSIZESEEDSPEERSHEALTH
9/28/20201.4 GB2456281
9/23/20205.3 GB2179282
9/26/2020892 MB18521073
9/23/2020797 MB1690365
9/28/2020704 MB1450225
9/26/20201.8 GB1444761
9/23/2020884 MB1205121
9/16/2020897 MB865137
9/18/20202.3 GB851641
9/23/20201.8 GB84340
Yesterday835 MB767125
9/25/2020797 MB735130
9/19/20201.3 GB6976
9/21/20201.3 GB64936
9/22/2020797 MB60852