Resident Evil - Vendetta (2017) (1080p BDRip-HEVC 1080p 10 Bit [TAoE]

Torrent Details


Resident Evil - Vendetta (2017) (1080p BDRip-HEVC 1080p 10 bit <span style=color:#fc9c6d>[TAoE]</span>

NAME
Resident Evil - Vendetta (2017) (1080p BDRip-HEVC 1080p 10 bit [TAoE].torrent
CATEGORY
Anime
INFOHASH
2320788e372e5bccc45fd8fa7b151941b846366f
SIZE
4.7 GB in 1 file
ADDED
Uploaded on 02-07-2020 by our crawler pet called "Spidey".
SWARM
0 seeders & 0 peers
RATING
No votes yet.

Please login to vote for this torrent.


Description

Год выхода: 2017

Страна / Студия: Япония / Capcom Company, Marza Animation Planet

Жанр: мультфильм, ужасы, фантастика, боевик, детектив, приключения

Продолжительность: 01:37:14

Перевод: Дублированный (Лицензия)



Режиссер: Таканори Цудзимото



Описание: Специалист B.S.A.A. Крис Редфилд помогает правительственному агенту Леону С. Кеннеди и профессору Ребекке Чемберс из Института биотехнологий. Троице придётся противостоять безумному учёному Эриасу и его армии ходячих мертвецов.



Качество: BDRip 1080p

Видео: HEVC/H.265, 1920x1080, ~5576 Kbps

Аудио 1: AC3, 6 ch, 640 Kbps - Русский, дублированный

Аудио 2: AC3, 6 ch, 640 Kbps - Английский

Субтитры: Русские, английские







Mediainfo Общее

Уникальный идентификатор : 251240230910549637681601844681867937597 (0xBD031BBFBE989139D112F8705AD6473D)

Полное имя : R:Resident Evil - Vendetta (2017) (1080p BDRip-HEVC 1080p 10 bit [TAoE].mkv.mkv

Формат : Matroska

Версия формата : Version 4 / Version 2

Размер файла : 4,66 Гбайт

Продолжительность : 1 ч. 37 м.

Общий поток : 6858 Кбит/сек

Название фильма : Resident Evil - Vendetta (2017) (1080p BDRip x265 10bit DTS-HD MA 5.1 - HxD) [TAoE].mkv

Дата кодирования : UTC 2020-06-22 18:06:28

Программа кодирования : mkvmerge v47.0.0 ('Black Flag') 64-bit

Библиотека кодирования : libebml v1.3.10 + libmatroska v1.5.2

Обложка : Yes

Attachments : cover.jpeg



Видео

Идентификатор : 1

Формат : HEVC

Формат/Информация : High Efficiency Video Coding

Профиль формата : Main [email protected]@Main

Идентификатор кодека : V_MPEGH/ISO/HEVC

Продолжительность : 1 ч. 37 м.

Битрейт : 5576 Кбит/сек

Ширина : 1920 пикселей

Высота : 1080 пикселей

Соотношение сторон : 16:9

Режим частоты кадров : Постоянный

Частота кадров : 23,976 (24000/1001) кадра/сек

Цветовое пространство : YUV

Субдискретизация насыщенности : 4:2:0

Битовая глубина : 10 бит

Бит/(Пиксели*Кадры) : 0.112

Размер потока : 3,79 Гбайт (81%)

Библиотека кодирования : x265 3.3+2-gbe2d82093:[Windows][GCC 9.2.0][64 bit] 10bit

Настройки программы : cpuid=1111039 / frame-threads=3 / numa-pools=8 / wpp / no-pmode / no-pme / no-psnr / no-ssim / log-level=2 / input-csp=1 / input-res=1920x1080 / interlace=0 / total-frames=139896 / level-idc=0 / high-tier=1 / uhd-bd=0 / ref=4 / no-allow-non-conformance / no-repeat-headers / annexb / no-aud / no-hrd / info / hash=0 / no-temporal-layers / open-gop / min-keyint=23 / keyint=250 / gop-lookahead=0 / bframes=8 / b-adapt=2 / b-pyramid / bframe-bias=0 / rc-lookahead=80 / lookahead-slices=4 / scenecut=40 / hist-scenecut=0 / radl=0 / no-splice / no-intra-refresh / ctu=64 / min-cu-size=8 / no-rect / no-amp / max-tu-size=32 / tu-inter-depth=1 / tu-intra-depth=1 / limit-tu=0 / rdoq-level=2 / dynamic-rd=0.00 / no-ssim-rd / signhide / no-tskip / nr-intra=0 / nr-inter=0 / no-constrained-intra / no-strong-intra-smoothing / max-merge=3 / limit-refs=3 / limit-modes / me=3 / subme=5 / merange=57 / temporal-mvp / no-frame-dup / no-hme / weightp / no-weightb / no-analyze-src-pics / deblock=0:0 / sao / no-sao-non-deblock / rd=4 / selective-sao=4 / no-early-skip / rskip / no-fast-intra / no-tskip-fast / no-cu-lossless / no-b-intra / no-splitrd-skip / rdpenalty=0 / psy-rd=1.30 / psy-rdoq=2.00 / no-rd-refine / no-lossless / cbqpoffs=0 / crqpoffs=0 / rc=crf / crf=19.0 / qcomp=0.60 / qpstep=4 / stats-write=0 / stats-read=0 / ipratio=1.40 / pbratio=1.30 / aq-mode=4 / aq-strength=1.10 / cutree / zone-count=0 / no-strict-cbr / qg-size=32 / no-rc-grain / qpmax=69 / qpmin=0 / no-const-vbv / sar=0 / overscan=0 / videoformat=5 / range=0 / colorprim=2 / transfer=2 / colormatrix=2 / chromaloc=0 / display-window=0 / cll=0,0 / min-luma=0 / max-luma=1023 / log2-max-poc-lsb=8 / vui-timing-info / vui-hrd-info / slices=1 / no-opt-qp-pps / no-opt-ref-list-length-pps / no-multi-pass-opt-rps / scenecut-bias=0.05 / hist-threshold=0.01 / no-opt-cu-delta-qp / no-aq-motion / no-hdr10 / no-hdr10-opt / no-dhdr10-opt / no-idr-recovery-sei / analysis-reuse-level=0 / analysis-save-reuse-level=0 / analysis-load-reuse-level=0 / scale-factor=0 / refine-intra=0 / refine-inter=0 / refine-mv=1 / refine-ctu-distortion=0 / no-limit-sao / ctu-info=0 / no-lowpass-dct / refine-analysis-type=0 / copy-pic=1 / max-ausize-factor=1.0 / no-dynamic-refine / no-single-sei / no-hevc-aq / no-svt / no-field / qp-adaptation-range=1.00 / no-scenecut-aware-qpconformance-window-offsets / right=0 / bottom=0

Default : Да

Forced : Нет



Аудио #1

Идентификатор : 2

Формат : AC-3

Формат/Информация : Audio Coding 3

Идентификатор кодека : A_AC3

Продолжительность : 1 ч. 37 м.

Вид битрейта : Постоянный

Битрейт : 640 Кбит/сек

Каналы : 6 каналов

Расположение каналов : Front: L C R, Side: L R, LFE

Частота : 48,0 КГц

Частота кадров : 31,250 кадров/сек (1536 SPF)

Битовая глубина : 16 бит

Метод сжатия : С потерями

Размер потока : 445 Мбайт (9%)

Заголовок : Dub | DD 5.1 @ 640 kbps - Blu-ray CEE

Язык : Russian

ServiceKind/Strin : Complete Main

Default : Да

Forced : Нет



Аудио #2

Идентификатор : 3

Формат : AC-3

Формат/Информация : Audio Coding 3

Идентификатор кодека : A_AC3

Продолжительность : 1 ч. 37 м.

Вид битрейта : Постоянный

Битрейт : 640 Кбит/сек

Каналы : 6 каналов

Расположение каналов : Front: L C R, Side: L R, LFE

Частота : 48,0 КГц

Частота кадров : 31,250 кадров/сек (1536 SPF)

Битовая глубина : 16 бит

Метод сжатия : С потерями

Размер потока : 445 Мбайт (9%)

Заголовок : DD 5.1 @ 640 kbps

Язык : English

ServiceKind/Strin : Complete Main

Default : Нет

Forced : Нет



Текст #1

Идентификатор : 4

Формат : UTF-8

Идентификатор кодека : S_TEXT/UTF8

Идентификатор кодека/Информация : UTF-8 Plain Text

Продолжительность : 1 ч. 35 м.

Битрейт : 44 бит/сек

ElementCount : 579

Размер потока : 31,1 Кбайт (0%)

Заголовок : iTunes

Язык : Russian

Default : Нет

Forced : Нет



Текст #2

Идентификатор : 5

Формат : UTF-8

Идентификатор кодека : S_TEXT/UTF8

Идентификатор кодека/Информация : UTF-8 Plain Text

Продолжительность : 1 ч. 30 м.

Битрейт : 30 бит/сек

ElementCount : 589

Размер потока : 19,8 Кбайт (0%)

Заголовок : Full

Язык : English

Default : Нет

Forced : Нет



Меню

00:00:00.000 : en:00:00:00.000

00:01:57.492 : en:00:01:57.492

00:11:47.624 : en:00:11:47.624

00:17:51.946 : en:00:17:51.946

00:25:12.261 : en:00:25:12.261

00:31:00.567 : en:00:31:00.567

00:36:43.118 : en:00:36:43.118

00:42:49.817 : en:00:42:49.817

00:48:20.981 : en:00:48:20.981

00:53:50.853 : en:00:53:50.853

00:58:51.027 : en:00:58:51.027

01:06:58.598 : en:01:06:58.598

01:11:38.836 : en:01:11:38.836

01:15:13.050 : en:01:15:13.050

01:21:41.688 : en:01:21:41.688

01:29:38.748 : en:01:29:38.748

Discussion

Comments 0

Post Your Comment

Files in this torrent

FILENAMESIZE
Resident Evil - Vendetta (2017) (1080p BDRip-HEVC 1080p 10 bit [TAoE].mkv.mkv4.7 GB

Alternative Torrents for 'Resident Evil Vendetta HEVC bit'.

TORRENT NAMEADDEDSIZESEEDSPEERSHEALTH
7/2/20204.7 GB00