Lucy 2014 [USA Transfer] 1080p [HEVC-CLUB] 10 Bit

Torrent Details


Lucy  2014  [USA Transfer]  1080p  [HEVC-CLUB]  10 bit

NAME
Lucy 2014 [USA Transfer] 1080p [HEVC-CLUB] 10 bit.torrent
CATEGORY
Movies
INFOHASH
43b261be47c976e47422ab6d95f5d2e80fbe755d
SIZE
4.2 GB in 1 file
ADDED
Uploaded on 07-07-2020 by our crawler pet called "Spidey".
SWARM
0 seeders & 0 peers
RATING
No votes yet.

Please login to vote for this torrent.


Description

Год выхода: 2014

Страна / Студия: Франция / EuropaCorp, TF1 Films Production, Grive Productions

Жанр: боевик, фантастика

Продолжительность: 01:29:27

Перевод: Дублированный, авторский (одноголосый, закадровый)



Режиссер: Люк Бессон

В ролях: Скарлетт Йоханссон, Морган Фриман, Чхве Мин Сик, Амр Вакед, Джулиан Райнд-Татт, Йохан Филип Асбек, Анали Типтон, Николас Фонгфет, Ян Оливер Шрёдер, Лука Анджелетти



Описание: Еще вчера она была просто сексапильной блондинкой, а сегодня - самое опасное и смертоносное создание на планете со сверхъестественными способностями и интеллектом. То, что совсем недавно лучшие умы мира считали фантастической теорией, для нее стало реальностью. И теперь из добычи она превратится в охотницу.



Качество: BDRip 1080p

Видео: HEVC/H.265, 1920x804, ~5226 Kbps

Аудио 1: AC3, 6 ch, 448 Kbps - Русский, дублированный (Лицензия)

Аудио 2: AC3, 6 ch, 384 Kbps - Русский, авторский (одноголосый, закадровый) (Гаврилов)

Аудио 3: AC3, 2 ch, 192 Kbps - Украинский, профессиональный (многоголосый, закадровый) (Cine+)

Аудио 4: AC3, 6 ch, 448 Kbps - Английский

Субтитры: Русские (форсированные, полные), украинские (форсированные, полные), английские (форсированные, полные)







Релиз от: -Star-Lord-



Mediainfo Общее

Уникальный идентификатор : 13405486374172592006603918653999993100 (0xA15CD81DB5F59C18E4C7C94473ED10C)

Полное имя : R:Lucy. 2014. [USA Transfer]. 1080p. [HEVC-CLUB]. 10 bit.mkv

Формат : Matroska

Версия формата : Version 4 / Version 2

Размер файла : 4,19 Гбайт

Продолжительность : 1 ч. 29 м.

Общий поток : 6699 Кбит/сек

Название фильма : [USA Transfer]

Дата кодирования : UTC 2020-07-07 11:57:16

Программа кодирования : mkvmerge v28.2.0 ('The Awakening') 64-bit

Библиотека кодирования : libebml v1.3.6 + libmatroska v1.4.9

Обложка : Yes

Attachments : cover.jpg



Видео

Идентификатор : 1

Формат : HEVC

Формат/Информация : High Efficiency Video Coding

Профиль формата : Main [email protected]@High

Идентификатор кодека : V_MPEGH/ISO/HEVC

Продолжительность : 1 ч. 29 м.

Битрейт : 5226 Кбит/сек

Ширина : 1920 пикселей

Высота : 804 пикселя

Соотношение сторон : 2,40:1

Режим частоты кадров : Постоянный

Частота кадров : 23,976 (24000/1001) кадра/сек

Цветовое пространство : YUV

Субдискретизация насыщенности : 4:2:0

Битовая глубина : 10 бит

Бит/(Пиксели*Кадры) : 0.141

Размер потока : 3,27 Гбайт (78%)

Заголовок : Lucy (2014) [USA Transfer]

Библиотека кодирования : x265 3.2+5-354901970679:[Windows][clang 8.0.1][64 bit] 10bit

Настройки программы : cpuid=1111039 / frame-threads=13 / numa-pools=12 / wpp / no-pmode / no-pme / no-psnr / no-ssim / log-level=3 / input-csp=1 / input-res=1920x804 / interlace=0 / total-frames=0 / level-idc=51 / high-tier=1 / uhd-bd=0 / ref=5 / allow-non-conformance / no-repeat-headers / annexb / no-aud / no-hrd / info / hash=0 / no-temporal-layers / open-gop / min-keyint=24 / keyint=240 / gop-lookahead=0 / bframes=11 / b-adapt=2 / b-pyramid / bframe-bias=0 / rc-lookahead=60 / lookahead-slices=0 / scenecut=40 / radl=0 / no-splice / no-intra-refresh / ctu=64 / min-cu-size=8 / rect / amp / max-tu-size=32 / tu-inter-depth=4 / tu-intra-depth=4 / limit-tu=0 / rdoq-level=2 / dynamic-rd=0.00 / no-ssim-rd / signhide / tskip / nr-intra=0 / nr-inter=0 / no-constrained-intra / no-strong-intra-smoothing / max-merge=5 / limit-refs=0 / no-limit-modes / me=3 / subme=7 / merange=57 / temporal-mvp / no-frame-dup / no-hme / weightp / weightb / no-analyze-src-pics / deblock=-3:-3 / no-sao / no-sao-non-deblock / rd=6 / selective-sao=0 / no-early-skip / no-rskip / no-fast-intra / no-tskip-fast / no-cu-lossless / b-intra / no-splitrd-skip / rdpenalty=0 / psy-rd=2.00 / psy-rdoq=1.00 / no-rd-refine / no-lossless / cbqpoffs=0 / crqpoffs=0 / rc=crf / crf=20.0 / qcomp=0.60 / qpstep=4 / stats-write=0 / stats-read=0 / vbv-maxrate=50000 / vbv-bufsize=50000 / vbv-init=0.9 / crf-max=30.0 / crf-min=0.0 / ipratio=1.40 / pbratio=1.30 / aq-mode=1 / aq-strength=1.00 / no-cutree / zone-count=0 / no-strict-cbr / qg-size=32 / no-rc-grain / qpmax=69 / qpmin=0 / no-const-vbv / sar=1 / overscan=0 / videoformat=5 / range=0 / colorprim=2 / transfer=2 / colormatrix=2 / chromaloc=0 / display-window=0 / cll=0,0 / min-luma=0 / max-luma=1023 / log2-max-poc-lsb=8 / vui-timing-info / vui-hrd-info / slices=1 / no-opt-qp-pps / no-opt-ref-list-length-pps / no-multi-pass-opt-rps / scenecut-bias=0.05 / no-opt-cu-delta-qp / no-aq-motion / no-hdr / no-hdr-opt / no-dhdr10-opt / no-idr-recovery-sei / analysis-reuse-level=5 / scale-factor=0 / refine-intra=0 / refine-inter=0 / refine-mv=1 / refine-ctu-distortion=0 / no-limit-sao / ctu-info=0 / no-lowpass-dct / refine-analysis-type=0 / copy-pic=1 / max-ausize-factor=1.0 / no-dynamic-refine / no-single-sei / no-hevc-aq / no-svt / no-field / qp-adaptation-range=1.00

Язык : English

Default : Да

Forced : Нет

Цветовой диапазон : Limited



Аудио #1

Идентификатор : 2

Формат : AC-3

Формат/Информация : Audio Coding 3

Идентификатор кодека : A_AC3

Продолжительность : 1 ч. 29 м.

Вид битрейта : Постоянный

Битрейт : 448 Кбит/сек

Каналы : 6 каналов

Расположение каналов : Front: L C R, Side: L R, LFE

Частота : 48,0 КГц

Частота кадров : 31,250 кадров/сек (1536 SPF)

Битовая глубина : 16 бит

Метод сжатия : С потерями

Размер потока : 286 Мбайт (7%)

Заголовок : Дублированный

Язык : Russian

ServiceKind/Strin : Complete Main

Default : Да

Forced : Да



Аудио #2

Идентификатор : 3

Формат : AC-3

Формат/Информация : Audio Coding 3

Идентификатор кодека : A_AC3

Продолжительность : 1 ч. 29 м.

Вид битрейта : Постоянный

Битрейт : 384 Кбит/сек

Каналы : 6 каналов

Расположение каналов : Front: L C R, Side: L R, LFE

Частота : 48,0 КГц

Частота кадров : 31,250 кадров/сек (1536 SPF)

Битовая глубина : 16 бит

Метод сжатия : С потерями

Размер потока : 245 Мбайт (6%)

Заголовок : AVO (Гаврилов)

Язык : Russian

ServiceKind/Strin : Complete Main

Default : Нет

Forced : Нет



Аудио #3

Идентификатор : 4

Формат : AC-3

Формат/Информация : Audio Coding 3

Идентификатор кодека : A_AC3

Продолжительность : 1 ч. 29 м.

Вид битрейта : Постоянный

Битрейт : 192 Кбит/сек

Каналы : 2 канала

Расположение каналов : Front: L R

Частота : 48,0 КГц

Частота кадров : 31,250 кадров/сек (1536 SPF)

Битовая глубина : 16 бит

Метод сжатия : С потерями

Размер потока : 123 Мбайт (3%)

Заголовок : MVO (Cine+)

Язык : Ukrainian

ServiceKind/Strin : Complete Main

Default : Нет

Forced : Нет



Аудио #4

Идентификатор : 5

Формат : AC-3

Формат/Информация : Audio Coding 3

Идентификатор кодека : A_AC3

Продолжительность : 1 ч. 29 м.

Вид битрейта : Постоянный

Битрейт : 448 Кбит/сек

Каналы : 6 каналов

Расположение каналов : Front: L C R, Side: L R, LFE

Частота : 48,0 КГц

Частота кадров : 31,250 кадров/сек (1536 SPF)

Битовая глубина : 16 бит

Метод сжатия : С потерями

Размер потока : 286 Мбайт (7%)

Язык : English

ServiceKind/Strin : Complete Main

Default : Нет

Forced : Нет



Текст #1

Идентификатор : 6

Формат : UTF-8

Идентификатор кодека : S_TEXT/UTF8

Идентификатор кодека/Информация : UTF-8 Plain Text

Продолжительность : 1 ч. 17 м.

Битрейт : 4 бит/сек

ElementCount : 67

Размер потока : 2,61 Кбайт (0%)

Заголовок : Форс.

Язык : Russian

Default : Нет

Forced : Нет



Текст #2

Идентификатор : 7

Формат : UTF-8

Идентификатор кодека : S_TEXT/UTF8

Идентификатор кодека/Информация : UTF-8 Plain Text

Продолжительность : 1 ч. 21 м.

Битрейт : 66 бит/сек

ElementCount : 777

Размер потока : 39,2 Кбайт (0%)

Заголовок : Полные

Язык : Russian

Default : Нет

Forced : Нет



Текст #3

Идентификатор : 8

Формат : UTF-8

Идентификатор кодека : S_TEXT/UTF8

Идентификатор кодека/Информация : UTF-8 Plain Text

Продолжительность : 1 ч. 17 м.

Битрейт : 3 бит/сек

ElementCount : 63

Размер потока : 2,10 Кбайт (0%)

Заголовок : Форс.

Язык : Ukrainian

Default : Да

Forced : Да



Текст #4

Идентификатор : 9

Формат : UTF-8

Идентификатор кодека : S_TEXT/UTF8

Идентификатор кодека/Информация : UTF-8 Plain Text

Продолжительность : 1 ч. 20 м.

Битрейт : 58 бит/сек

ElementCount : 777

Размер потока : 34,3 Кбайт (0%)

Заголовок : Полные

Язык : Ukrainian

Default : Нет

Forced : Нет



Текст #5

Идентификатор : 10

Формат : UTF-8

Идентификатор кодека : S_TEXT/UTF8

Идентификатор кодека/Информация : UTF-8 Plain Text

Продолжительность : 50 м. 6 с.

Битрейт : 3 бит/сек

ElementCount : 59

Размер потока : 1,36 Кбайт (0%)

Заголовок : Forced

Язык : English

Default : Нет

Forced : Нет



Текст #6

Идентификатор : 11

Формат : UTF-8

Идентификатор кодека : S_TEXT/UTF8

Идентификатор кодека/Информация : UTF-8 Plain Text

Продолжительность : 1 ч. 20 м.

Битрейт : 42 бит/сек

ElementCount : 830

Размер потока : 25,4 Кбайт (0%)

Заголовок : Full

Язык : English

Default : Нет

Forced : Нет



Меню

00:00:00.000 : en:Chapter 01

00:05:26.367 : en:Chapter 02

00:08:38.267 : en:Chapter 03

00:15:45.569 : en:Chapter 04

00:21:36.837 : en:Chapter 05

00:26:05.397 : en:Chapter 06

00:30:27.534 : en:Chapter 07

00:37:36.254 : en:Chapter 08

00:41:43.459 : en:Chapter 09

00:47:32.558 : en:Chapter 10

00:50:10.716 : en:Chapter 11

00:55:32.495 : en:Chapter 12

00:59:36.072 : en:Chapter 13

01:02:08.099 : en:Chapter 14

01:04:51.345 : en:Chapter 15

01:07:14.030 : en:Chapter 16

01:09:55.816 : en:Chapter 17

01:12:26.133 : en:Chapter 18

01:18:50.475 : en:Chapter 19

01:22:31.988 : en:Chapter 20

Discussion

Comments 0

Post Your Comment

Files in this torrent

FILENAMESIZE
Lucy. 2014. [USA Transfer]. 1080p. [HEVC-CLUB]. 10 bit.mkv4.2 GB

Alternative Torrents for 'Lucy USA Transfer HEVCCLUB bit'.

TORRENT NAMEADDEDSIZESEEDSPEERSHEALTH
Yesterday2.3 GB177288
7/24/2020698 MB14725
Yesterday132 MB110163
8/2/202043 MB10611
8/3/2020144 MB8513
8/5/2020634 MB6519
7/24/20201.4 GB627
8/6/202014.6 GB5845
7/26/2020145 MB513
7/24/2020789 MB428
7/25/2020148 MB345
7/29/202017.7 GB2215
Yesterday258 MB218
Today19.6 GB2069
8/4/20201.1 GB2016