Bilal 2015 X264 BDRip (1080p) OlLanDGroup

Torrent Details


Bilal 2015 x264 BDRip (1080p)<span style=color:#fc9c6d> OlLanDGroup</span>

NAME
Bilal 2015 x264 BDRip (1080p) OlLanDGroup.torrent
CATEGORY
Anime
INFOHASH
15be29f883d547346c28076c48c14b240b768686
SIZE
6.2 GB in 1 file
ADDED
Uploaded on 08-07-2020 by our crawler pet called "Spidey".
SWARM
0 seeders & 0 peers
RATING
No votes yet.

Please login to vote for this torrent.


Description

Информация о фильме





Название: Билал

Оригинальное название: Bilal: A New Breed of Hero

Год выпуска: 2015

Жанр: Мультфильм, боевик, приключения, полнометражный

Выпущено: ОАЭ, США, Швейцария, Barajoun Entertainment, Jeridoo Universe, Resnick Interactive Development

Режиссер: Хурам Эйч Аллави, Эйман Джамал

В ролях: Адевале Акиннуойе-Агбадже, Иэн МакШейн, Чайна Энн МакКлейн, Томас Иэн Николас, Майкл Гросс, Синтия Кэй МакУильямс, Джейкоб Латимор, Фред Татаскьор, Джон Карри, Мик Уингерт





О фильме: Тысячу лет тому назад храбрый мальчик, мечтавший стать великим воином, был похищен коварными врагами. Вдали от дома, в мире, где все подчинено жажде наживы, где справедливость — лишь миф, он находит в себе силы возвысить свой голос и все изменить.











Качество: BDRip (1080p)

Видео: MPEG-4 AVC, 6196 Кбит/с, 1920x804, 23.976 кадр/с

Аудио: Русский (AC3, 6 ch, 348 Кбит/с), английский (DTS, 6 ch, 1509 Кбит/с)

Размер: 6.19 ГБ

Продолжительность: 01:49:38

Перевод: Дублированный

Субтитры: Английские





Озвучивание - Дублированное (iTunes)

Сохранены оригинальные чаптеры как на Blu-Ray.

За исходник, большое спасибо BLUEBIRD





x264

x264 [info]: frame I:1111 Avg QP:11.80 size:194187

x264 [info]: frame P:50232 Avg QP:15.25 size: 59389

x264 [info]: frame B:106385 Avg QP:16.95 size: 17766

x264 [info]: consecutive B-frames: 8.8% 8.3% 16.7% 37.5% 8.7% 10.1% 5.1% 3.0% 0.3% 0.2% 1.5%

x264 [info]: mb I I16..4: 11.7% 64.3% 24.0%

x264 [info]: mb P I16..4: 3.6% 18.9% 3.5% P16..4: 26.6% 27.4% 9.5% 1.9% 0.2% skip: 8.4%

x264 [info]: mb B I16..4: 0.6% 2.0% 0.4% B16..8: 31.8% 18.7% 2.8% direct: 4.4% skip:39.3% L0:39.3% L1:46.0% BI:14.7%

x264 [info]: 8x8 transform intra:70.8% inter:51.5%

x264 [info]: direct mvs spatial:93.7% temporal:6.3%

x264 [info]: coded y,uvDC,uvAC intra: 64.6% 73.7% 53.3% inter: 16.7% 16.8% 9.2%

x264 [info]: i16 v,h,dc,p: 33% 18% 5% 44%

x264 [info]: i8 v,h,dc,ddl,ddr,vr,hd,vl,hu: 10% 12% 16% 8% 10% 10% 11% 10% 14%

x264 [info]: i4 v,h,dc,ddl,ddr,vr,hd,vl,hu: 24% 12% 20% 5% 9% 8% 8% 6% 8%

x264 [info]: i8c dc,h,v,p: 32% 32% 18% 17%

x264 [info]: Weighted P-Frames: Y:3.4% UV:2.3%

x264 [info]: ref P L0: 62.0% 9.5% 15.9% 6.7% 4.5% 1.2% 0.0%

x264 [info]: ref B L0: 84.5% 11.0% 3.6% 0.9%

x264 [info]: ref B L1: 93.9% 6.1%

x264 [info]: kb/s:6188.57



Инфо-файл

Общее

Уникальный идентификатор : 187865752167714480246009062521427488352 (0x8D55A0B50A7159BBB50D7A095A8C6E60)

Полное имя : D:ЗагрузкиBilal.2015.x264.BDRip.(1080p).OlLanDGroup.mkv

Формат : Matroska

Версия формата : Version 4 / Version 2

Размер файла : 6,19 Гбайт

Продолжительность : 1 ч. 49 м.

Общий поток : 8084 Кбит/сек

Название фильма : Билал.2015.Rip by: ollan

Дата кодирования : UTC 2020-07-08 09:10:42

Программа кодирования : mkvmerge v6.5.0 ('Isn't she lovely') built on Oct 20 2013 12:50:05

Библиотека кодирования : libebml v1.3.0 + libmatroska v1.4.1

Обложка : Yes

Attachments : Cover - Bilal..png



Видео

Идентификатор : 1

Формат : AVC

Формат/Информация : Advanced Video Codec

Профиль формата : [email protected]

Настройки формата : CABAC / 5 Ref Frames

Параметр CABAC формата : Да

Параметр ReFrames формата : 5 кадров

Идентификатор кодека : V_MPEG4/ISO/AVC

Продолжительность : 1 ч. 49 м.

Битрейт : 6196 Кбит/сек

Ширина : 1920 пикселей

Высота : 804 пикселя

Соотношение сторон : 2,40:1

Режим частоты кадров : Постоянный

Частота кадров : 23,976 (24000/1001) кадра/сек

Цветовое пространство : YUV

Субдискретизация насыщенности : 4:2:0

Битовая глубина : 8 бит

Тип развёртки : Прогрессивная

Бит/(Пиксели*Кадры) : 0.167

Размер потока : 4,62 Гбайт (75%)

Библиотека кодирования : x264 core 146 r2538 121396c

Настройки программы : cabac=1 / ref=5 / deblock=1:-3:-3 / analyse=0x3:0x133 / me=umh / subme=11 / psy=1 / psy_rd=0.95:0.05 / mixed_ref=1 / me_range=64 / chroma_me=1 / trellis=2 / 8x8dct=1 / cqm=0 / deadzone=21,11 / fast_pskip=0 / chroma_qp_offset=-3 / threads=12 / lookahead_threads=3 / sliced_threads=0 / nr=0 / decimate=0 / interlaced=0 / bluray_compat=0 / constrained_intra=0 / bframes=10 / b_pyramid=2 / b_adapt=2 / b_bias=0 / direct=3 / weightb=1 / open_gop=0 / weightp=2 / keyint=240 / keyint_min=23 / scenecut=40 / intra_refresh=0 / rc_lookahead=40 / rc=2pass / mbtree=0 / bitrate=6196 / ratetol=1.0 / qcomp=0.60 / qpmin=0 / qpmax=69 / qpstep=4 / cplxblur=20.0 / qblur=0.5 / vbv_maxrate=50000 / vbv_bufsize=62500 / nal_hrd=none / filler=0 / ip_ratio=1.40 / pb_ratio=1.30 / aq=1:1.00

Язык : English

Default : Да

Forced : Нет



Аудио #1

Идентификатор : 2

Формат : AC-3

Формат/Информация : Audio Coding 3

Идентификатор кодека : A_AC3

Продолжительность : 1 ч. 49 м.

Вид битрейта : Постоянный

Битрейт : 384 Кбит/сек

Каналы : 6 каналов

Расположение каналов : Front: L C R, Side: L R, LFE

Частота : 48,0 КГц

Частота кадров : 31,250 кадров/сек (1536 SPF)

Битовая глубина : 16 бит

Метод сжатия : С потерями

Размер потока : 301 Мбайт (5%)

Заголовок : iTunes

Язык : Russian

Service kind : Complete Main

Default : Да

Forced : Нет



Аудио #2

Идентификатор : 3

Формат : DTS

Формат/Информация : Digital Theater Systems

Идентификатор кодека : A_DTS

Продолжительность : 1 ч. 49 м.

Вид битрейта : Постоянный

Битрейт : 1509 Кбит/сек

Каналы : 6 каналов

Расположение каналов : Front: L C R, Side: L R, LFE

Частота : 48,0 КГц

Частота кадров : 93,750 кадра/сек (512 SPF)

Битовая глубина : 24 бит

Метод сжатия : С потерями

Размер потока : 1,16 Гбайт (19%)

Язык : English

Default : Нет

Forced : Нет



Текст #1

Идентификатор : 4

Формат : UTF-8

Идентификатор кодека : S_TEXT/UTF8

Идентификатор кодека/Информация : UTF-8 Plain Text

Заголовок : Forced

Язык : English

Default : Нет

Forced : Нет



Текст #2

Идентификатор : 5

Формат : UTF-8

Идентификатор кодека : S_TEXT/UTF8

Идентификатор кодека/Информация : UTF-8 Plain Text

Заголовок : Full

Язык : English

Default : Нет

Forced : Нет



Меню

00:00:00.000 : en:Chapter 01

00:10:30.628 : en:Chapter 02

00:19:38.969 : en:Chapter 03

00:29:25.221 : en:Chapter 04

00:41:30.196 : en:Chapter 05

00:48:54.514 : en:Chapter 06

00:57:00.708 : en:Chapter 07

01:06:09.506 : en:Chapter 08

01:16:42.264 : en:Chapter 09

01:30:26.421 : en:Chapter 10

01:39:44.144 : en:Chapter 11

01:45:25.902 : en:Chapter 12







Скриншоты









Релиз от: Rip by:

Discussion

Comments 0

Post Your Comment

Files in this torrent

FILENAMESIZE
Bilal.2015.x264.BDRip.(1080p).OlLanDGroup.mkv6.2 GB

Alternative Torrents for 'Bilal'.

TORRENT NAMEADDEDSIZESEEDSPEERSHEALTH
11/15/20201.7 GB00
11/6/20202.6 GB00
11/5/2020529 MB00
11/4/20204.4 GB00
11/1/2020612 MB00
11/1/20201.4 GB00
10/3/2020913 MB00
9/1/20201.5 GB00
9/1/20204.4 GB00
8/9/2020752 MB00
8/8/2020749 MB00
7/8/20202.1 GB00
7/8/20206.2 GB00
7/8/20208.8 GB00
7/8/20201.5 GB00