247°F 2011 BRRip English

Torrent Details

247°F 2011 BRRip English247°F 2011 BRRip English

NAME
247°F 2011 BRRip English.torrent
CATEGORY
Movies
INFOHASH
70159f3fed19ad8351603b26b712872a034bb0c2
SIZE
494 MB in 1 file
ADDED
Uploaded on 20-10-2012 by our crawler pet called "Spidey".
SWARM
0 seeders & 0 peers
RATING
No votes yet.

Please login to vote for this torrent.


Description

Poster:

Release Info:
Code: General
Format : Matroska
Format version : Version 2
File size : 494 MiB
Duration : 1h 27mn
Overall bit rate : 787 Kbps
Movie name : 247 Degrees Fahrenheit
Video
ID : 1
Format : MPEG-4 Visual
Format profile : [email protected]
Format settings, BVOP : Yes
Format settings, QPel : No
Format settings, GMC : No warppoints
Format settings, Matrix : Default (H.263)
Codec ID : V_MS/VFW/FOURCC / XVID
Codec ID/Hint : XviD
Duration : 1h 27mn
Bit rate : 643 Kbps
Width : 720 pixels
Height : 304 pixels
Display aspect ratio : 2.35:1
Frame rate mode : Constant
Frame rate : 23.976 fps
Color space : YUV
Chroma subsampling : 4:2:0
Bit depth : 8 bits
Scan type : Progressive
Compression mode : Lossy
Bits/(Pixel*Frame) : 0.123
Stream size : 403 MiB (82%)
Language : English
Default : Yes
Forced : No
Audio
ID : 2
Format : MPEG Audio
Format version : Version 1
Format profile : Layer 3
Mode : Joint stereo
Muxing mode : Header stripping
Codec ID : A_MPEG/L3
Codec ID/Hint : MP3
Duration : 1h 27mn
Bit rate mode : Constant
Bit rate : 128 Kbps
Channel(s) : 2 channels
Sampling rate : 44.1 KHz
Compression mode : Lossy
Stream size : 80.3 MiB (16%)
Language : English
Default : Yes
Forced : No
IMDB Info:
Code: Four friends travel to a lakeside cabin for a carefree weekend, the fun turns into a nightmare when 3 of them end up locked in a hot sauna. Every minute counts and every degree matters as they fight for their lives in the heat up to 247┬░F.
Directors: Levan Bakhia, Beqa Jguburia
Writers: Lloyd S. Wagner, Levan Bakhia (story),
Stars: Scout Taylor-Compton, Travis Van Winkle and Michael Copon

http://www.imdb.com/title/tt1877543/
Genres: Horror | Thriller
Screen Shot:




Discussion

Comments 0

Post Your Comment

Files in this torrent

FILENAMESIZE
247°F 2011 BRRip English.MKV493.6 MB

Alternative Torrents for '°F English'.

TORRENT NAMEADDEDSIZESEEDSPEERSHEALTH
3/31/20204.5 GB00
3/29/20204.6 GB00
2/9/20204.2 GB00
9/11/20191 GB00
8/12/20188.9 GB00
7/20/20183.8 GB00
7/17/20186.8 GB00
7/14/20183.2 GB00
7/10/20181.9 GB00
7/10/20185.5 GB00
7/9/20182.2 GB00
7/7/20189 GB00
7/3/20186.3 GB00
7/3/201811.1 GB00
7/3/20182.3 GB00