The Karate Kid 2010 1080p BluRay X264 DTS-FGT

Torrent Details

The Karate Kid 2010 1080p BluRay x264 DTS<span style=color:#fc9c6d>-FGT</span>

NAME
The Karate Kid 2010 1080p BluRay x264 DTS-FGT.torrent
CATEGORY
Movies
INFOHASH
3c420b22a8f8c4a37b310ca7596d4f52f16698fa
SIZE
13.2 GB in 1 file
ADDED
Uploaded on 09-07-2020 by our crawler pet called "Spidey".
SWARM
0 seeders & 0 peers
RATING
No votes yet.

Please login to vote for this torrent.


Description

◎译  名 功夫梦 / Kung Fu Kid / 功夫小子 / 新龙威小子◎片  名 The Karate Kid◎年  代 2010◎产  地 美国 / 中国大陆◎类  别 剧情 / 动作 / 家庭 / 运动◎语  言 英语 / 汉语普通话◎上映日期 2010-06-10(韩国) / 2010-06-11(美国) / 2010-06-22(中国大陆)◎IMDb评分 6.2/10 from 156246 users◎IMDb链接 https://www.imdb.com/title/tt1155076◎豆瓣评分 6.4/10 from 83634 users◎豆瓣链接 https://movie.douban.com/subject/3074503/◎片  长 140分钟◎导  演 哈罗德·兹瓦特 Harald Zwart◎编  剧 克里斯托弗·墨菲 Christopher Murphey / 罗伯特·马克·卡门 Robert Mark Kamen◎主  演 贾登·史密斯 Jaden Smith      成龙 Jackie Chan      塔拉吉·P·汉森 Taraji P. Henson      韩雯雯 Wenwen Han      于荣光 Rongguang Yu      赵毅 Yi Zhao      王姬 Ji Wang◎标  签 功夫 | 动作 | 美国 | 励志 | 儿童 | 2010 | 梦想 | 喜剧◎简  介   本片根据好莱坞1984年的同名电影翻拍而成。12岁的德瑞·帕克(贾登·史密斯 Jaden Smith 饰)随母亲(塔拉吉·P·汉森 Taraji P. Henson 饰)由底特律搬家至中国北京,认识了同校拉小提琴的中国女孩美莹(韩雯雯 饰)。德瑞与美莹的交往引起了学校以程(王振威 饰)为首的小团体的不满,在一次打斗中,处于劣势的德瑞被公寓管理员老韩(成龙 饰)所救,却得罪了程的武术老师李师傅(于荣光 饰)。老韩与李师傅约定,由徒弟们在比武大会上一较高下。从此,德瑞师承老韩开始学习中国功夫,从拳脚练习到个性修炼,一点点领会武术及人生的真谛,同时也与老韩建立了深厚的友谊。但只有短期训练的德瑞究竟能否在残酷的比武大赛上战胜程,取得最终胜利呢?◎获奖情况   第10届凤凰城影评人协会奖(2010)  最佳真人家庭电影(提名)  最佳青年男演员(提名) 贾登·史密斯  第12届美国青少年选择奖(2010)  最佳暑期电影(提名)  最佳暑期电影男演员(提名) 贾登·史密斯Video ID : 1 Format : AVC Format/Info : Advanced Video Codec Format profile : [email protected] Format settings : CABAC / 5 Ref Frames Format settings, CABAC : Yes Format settings, Reference frames : 5 frames Codec ID : V_MPEG4/ISO/AVC Duration : 2 h 20 min Bit rate : 12.0 Mb/s Width : 1 920 pixels Height : 800 pixels Display aspect ratio : 2.40:1 Frame rate mode : Constant Frame rate : 23.976 (24000/1001/189150) FPS Color space : YUV Chroma subsampling : 4:2:0 Bit depth : 8 bits Scan type : Progressive Bits/(Pixel*Frame) : 0.326 Stream size : 11.5 GiB (87%) Writing library : x264 core 105 r1724 b02df7b Encoding settings : cabac=1 / ref=5 / deblock=1:-3:-3 / analyse=0x3:0x113 / me=tesa / subme=10 / psy=1 / psy_rd=1.00:0.00 / mixed_ref=1 / me_range=16 / chroma_me=1 / trellis=2 / 8x8dct=1 / cqm=0 / deadzone=21,11 / fast_pskip=0 / chroma_qp_offset=-2 / threads=12 / sliced_threads=0 / nr=0 / decimate=0 / interlaced=0 / constrained_intra=0 / bframes=8 / b_pyramid=2 / b_adapt=2 / b_bias=0 / direct=3 / weightb=1 / open_gop=0 / weightp=2 / keyint=250 / keyint_min=23 / scenecut=40 / intra_refresh=0 / rc=2pass / mbtree=0 / bitrate=12000 / ratetol=1.0 / qcomp=0.60 / qpmin=10 / qpmax=51 / qpstep=4 / cplxblur=20.0 / qblur=0.5 / ip_ratio=1.40 / pb_ratio=1.30 / aq=1:0.85 Language : English Default : Yes Forced : No Audio ID : 2 Format : DTS Format/Info : Digital Theater Systems Codec ID : A_DTS Duration : 2 h 20 min Bit rate mode : Constant Bit rate : 1 509 kb/s Channel(s) : 6 channels Channel layout : C L R Ls Rs LFE Sampling rate : 48.0 kHz Frame rate : 93.750 FPS (512 SPF) Bit depth : 16 bits Compression mode : Lossy Stream size : 1.48 GiB (11%) Language : English Default : Yes Forced : No Text #1 ID : 3 Format : UTF-8 Codec ID : S_TEXT/UTF8 Codec ID/Info : UTF-8 Plain Text Language : English Default : No Forced : No Text #2 ID : 4 Format : UTF-8 Codec ID : S_TEXT/UTF8 Codec ID/Info : UTF-8 Plain Text Language : Czech Default : No Forced : No Text #3 ID : 5 Format : UTF-8 Codec ID : S_TEXT/UTF8 Codec ID/Info : UTF-8 Plain Text Language : Dutch Default : No Forced : No Text #4 ID : 6 Format : UTF-8 Codec ID : S_TEXT/UTF8 Codec ID/Info : UTF-8 Plain Text Language : Estonian Default : No Forced : No Text #5 ID : 7 Format : UTF-8 Codec ID : S_TEXT/UTF8 Codec ID/Info : UTF-8 Plain Text Language : Portuguese Default : No Forced : No Text #6 ID : 8 Format : UTF-8 Codec ID : S_TEXT/UTF8 Codec ID/Info : UTF-8 Plain Text Language : Portuguese Default : No Forced : No Text #7 ID : 9 Format : UTF-8 Codec ID : S_TEXT/UTF8 Codec ID/Info : UTF-8 Plain Text Language : Spanish Default : No Forced : No Text #8 ID : 10 Format : UTF-8 Codec ID : S_TEXT/UTF8 Codec ID/Info : UTF-8 Plain Text Language : Swedish Default : No Forced : No Menu 00:00:00.000 : :00:00:00.000 00:10:26.251 : :00:10:26.251 00:15:06.322 : :00:15:06.322 00:24:27.216 : :00:24:27.216 00:39:49.304 : :00:39:49.304 00:49:52.406 : :00:49:52.406 00:54:55.000 : :00:54:55.000 01:04:37.624 : :01:04:37.624 01:09:47.058 : :01:09:47.058 01:20:24.570 : :01:20:24.570 01:30:43.480 : :01:30:43.480 01:41:44.098 : :01:41:44.098 01:46:57.661 : :01:46:57.661 01:50:24.576 : :01:50:24.576 01:58:59.674 : :01:58:59.674 02:03:57.180 : :02:03:57.180

Discussion

Comments 0

Post Your Comment

Files in this torrent

FILENAMESIZE
The.Karate.Kid.2010.1080p.BluRay.x264.DTS-FGT.mkv13.2 GB

Alternative Torrents for 'Karate Kid BluRay DTS'.

TORRENT NAMEADDEDSIZESEEDSPEERSHEALTH
7/9/202013.2 GB00
7/2/202012.6 GB00
4/29/201961.5 GB00
4/27/201915.7 GB00
4/26/201943 GB00
4/26/201947.3 GB00
4/26/201912.9 GB00
4/26/201968.4 GB00